Vsetko zadarmo

Vsetko zadarmo
 
DomovFAQHľadaťRegistráciaZoznam užívateľovUžívateľské skupinyPrihlásenie

Share | 
 

 REC (2007)

Zobraziť predchádzajúcu tému Zobraziť nasledujúcu tému Goto down 
AutorSpráva
aismen
Mega Uploader
Mega Uploader


Počet príspevkov : 703
Registration date : 16.04.2008

OdoslaťPredmet: REC (2007)   St október 12, 2011 5:38 am

[Rec]
REC


Horor / Thriller
Španělsko, 2007, 78 min

CSFD

Režie:Jaume Balagueró, Paco Plaza
Hrají:Manuela Velasco, Javier Botet, Manuel Bronchud, Martha Carbonell, Claudia Font, Vicente Gil, Ferran Terraza, Pablo Rosso, Ana Isabel Velásquez, David Vert, Jorge-Yamam Serrano

Tlačítko "REC" stiske mladá televizní reportérka a její kameraman, kteří natáčejí noční směnu v místní požární stanici. Po chvíli přijímají hasiči tísňovou výzvu staré ženy, která je uvězněna ve svém domě. Když dorazí na místo, ozve se strašidelný křik. Tím začíná dlouhá noční múra a unikátní dramatická televizní reportáž.

INFO:
kód:
General
Format : AVI
Format/Info : Audio Video Interleave
File size : 868 MiB
Duration : 1h 15mn
Overall bit rate : 1 612 Kbps
Writing application : VirtualDubMod 1.5.10.2 (build 2540/release)
Writing library : VirtualDubMod build 2540/release

Video
ID : 0
Format : MPEG-4 Visual
Format profile : Advanced Simple@L5
Format settings, BVOP : 2
Format settings, QPel : No
Format settings, GMC : No warppoints
Format settings, Matrix : Default (H.263)
Codec ID : XVID
Codec ID/Hint : XviD
Duration : 1h 15mn
Bit rate : 1 155 Kbps
Width : 592 pixels
Height : 320 pixels
Display aspect ratio : 1.850
Frame rate : 25.000 fps
Color space : YUV
Chroma subsampling : 4:2:0
Bit depth : 8 bits
Scan type : Progressive
Compression mode : Lossy
Bits/(Pixel*Frame) : 0.244
Stream size : 621 MiB (72%)
Writing library : XviD 1.0.3 (UTC 2004-12-20)

Audio
ID : 1
Format : AC-3
Format/Info : Audio Coding 3
Mode extension : CM (complete main)
Codec ID : 2000
Duration : 1h 15mn
Bit rate mode : Constant
Bit rate : 448 Kbps
Channel(s) : 6 channels
Channel positions : Front: L C R, Side: L R, LFE
Sampling rate : 48.0 KHz
Bit depth : 16 bits
Compression mode : Lossy
Stream size : 241 MiB (28%)
Alignment : Split accross interleaves
Interleave, duration : 40 ms (1.00 video frame)
Interleave, preload duration : 500 ms

DOWNLOAD:
hellshare
kód:
http://download.hellshare.sk/rec-cz-avi/3772828

euroshare
kód:
http://euroshare.eu/file/1938840/rec_cz.avi

BEZ HESLA
Návrat hore Goto down
Zobrazit informácie o autorovi http://warnerfilm.forumn.org
 
REC (2007)
Zobraziť predchádzajúcu tému Zobraziť nasledujúcu tému Návrat hore 
Strana 1 z 1

Povolenie tohoto fóra:Nemôžete odpovedať na témy v tomto fóre.
Vsetko zadarmo :: .::Download filmy::. :: .::Filmy s ceskym a slovenskym dabingom::.-
Prejdi na: