Vsetko zadarmo

Vsetko zadarmo
 
DomovFAQHľadaťRegistráciaZoznam užívateľovUžívateľské skupinyPrihlásenie

Share | 
 

 Hulk vs. Thor (2009)

Zobraziť predchádzajúcu tému Zobraziť nasledujúcu tému Goto down 
AutorSpráva
aismen
Mega Uploader
Mega Uploader


Počet príspevkov : 703
Registration date : 16.04.2008

OdoslaťPredmet: Hulk vs. Thor (2009)   Ut október 11, 2011 4:05 pm

Hulk vs. Thor
Hulk vs. Thor


Animovaný / Akční
USA, 2009, 78 min

CSFD

Režie:Sam Liu, Frank Paur
Hudba:Guy Michelmore
Hrají:Steve Blum, Bryce Johnson, Tom Kane, Graham McTavish, Fred Tatasciore, Nolan North


Hulk vs. Thor
Už věky se krutý a lstivý Loki snaží zničit svého nevlastního bratra, Thora. Ale ve všech bitvách, ve kterých změřili síly, zvítězil neporazitelný Thor. Loki se však nevzdává a tentokrát vymyslel nový plán, jak porazit Thora a získat Odinův trůn. Chce ovládnout mysl pozemského Hulka a použít jeho destruktivní hněv proti království prince Thora, v dobách jeho největší zranitelnosti, v době zimního spánku krále Odina.


INFO:
kód:
Format                          : Matroska
Format version                  : Version 1
File size                        : 1.80 GiB
Duration                        : 45mn 28s
Overall bit rate                : 5 672 Kbps
Encoded date                    : UTC 2009-02-01 17:07:22
Writing application              : mkvmerge v2.4.1 ('Use Me') built on Dec  5 2008 18:30:05
Writing library                  : libebml v0.7.7 + libmatroska v0.8.1
Attachment                      : Yes / Yes / Yes

Video
ID                              : 1
Format                          : AVC
Format/Info                      : Advanced Video Codec
Format profile                  : High@L4.1
Format settings, CABAC          : Yes
Format settings, ReFrames        : 8 frames
Codec ID                        : V_MPEG4/ISO/AVC
Duration                        : 45mn 28s
Bit rate                        : 4 000 Kbps
Width                            : 1 280 pixels
Height                          : 720 pixels
Display aspect ratio            : 16:9
Frame rate                      : 23.976 fps
Color space                      : YUV
Chroma subsampling              : 4:2:0
Bit depth                        : 8 bits
Scan type                        : Progressive
Bits/(Pixel*Frame)              : 0.181
Stream size                      : 1.24 GiB (69%)
Title                            : Hulk vs Thor 2009 720p
Writing library                  : x264 core 66 r1086M 39a2796
Encoding settings                : cabac=1 / ref=8 / deblock=1:-3:-3 / analyse=0x3:0x113 / me=esa / subme=9 / psy_rd=0.7:0.0 / mixed_ref=1 / me_range=24 / chroma_me=1 / trellis=2 / 8x8dct=1 / cqm=0 / deadzone=21,11 / chroma_qp_offset=-2 / threads=6 / nr=0 / decimate=0 / mbaff=0 / bframes=4 / b_pyramid=1 / b_adapt=2 / b_bias=0 / direct=1 / wpredb=1 / keyint=250 / keyint_min=25 / scenecut=40(pre) / rc=2pass / bitrate=4000 / ratetol=1.0 / qcomp=0.60 / qpmin=10 / qpmax=51 / qpstep=4 / cplxblur=20.0 / qblur=0.5 / ip_ratio=1.40 / pb_ratio=1.30 / aq=1:0.70
Language                        : English

Audio #1
ID                              : 2
Format                          : DTS
Format/Info                      : Digital Theater Systems
Codec ID                        : A_DTS
Duration                        : 45mn 28s
Bit rate mode                    : Constant
Bit rate                        : 1 510 Kbps
Channel(s)                      : 6 channels
Channel positions                : Front: L C R, Side: L R, LFE
Sampling rate                    : 48.0 KHz
Bit depth                        : 24 bits
Compression mode                : Lossy
Stream size                      : 491 MiB (27%)
Title                            : DTS Core 5.1 @ 1.5 Mbps
Language                        : English

Audio #2
ID                              : 3
Format                          : Vorbis
Format settings, Floor          : 1
Codec ID                        : A_VORBIS
Duration                        : 45mn 28s
Bit rate mode                    : Variable
Bit rate                        : 80.0 Kbps
Channel(s)                      : 2 channels
Sampling rate                    : 48.0 KHz
Compression mode                : Lossy
Stream size                      : 26.0 MiB (1%)
Title                            : Commentary 1
Writing library                  : libVorbis 1.2 (UTC 2007-06-22)
Language                        : English
Writing application              : Made with BeSweet v1.5b31
Encoded_Application/Url          : http://DSPguru.doom9.org

Audio #3
ID                              : 4
Format                          : Vorbis
Format settings, Floor          : 1
Codec ID                        : A_VORBIS
Duration                        : 45mn 28s
Bit rate mode                    : Variable
Bit rate                        : 80.0 Kbps
Channel(s)                      : 2 channels
Sampling rate                    : 48.0 KHz
Compression mode                : Lossy
Stream size                      : 26.0 MiB (1%)
Title                            : Commentary 2
Writing library                  : libVorbis 1.2 (UTC 2007-06-22)
Language                        : English
Writing application              : Made with BeSweet v1.5b31
Encoded_Application/Url          : http://DSPguru.doom9.org

Text #1
ID                              : 5
Format                          : ASS
Codec ID                        : S_TEXT/ASS
Codec ID/Info                    : Advanced Sub Station Alpha
Compression mode                : Lossless
Language                        : scr

Text #2
ID                              : 6
Format                          : ASS
Codec ID                        : S_TEXT/ASS
Codec ID/Info                    : Advanced Sub Station Alpha
Compression mode                : Lossless
Language                        : English

Text #3
ID                              : 7
Format                          : ASS
Codec ID                        : S_TEXT/ASS
Codec ID/Info                    : Advanced Sub Station Alpha
Compression mode                : Lossless
Language                        : Slovenian

DOWNLOAD:
hellshare
kód:
http://download.hellshare.sk/hulk-vs-thor-2009-720p-bluray-dts-x264-don-part1-rar/3769983
http://download.hellshare.sk/hulk-vs-thor-2009-720p-bluray-dts-x264-don-part2-rar/3770077
http://download.hellshare.sk/hulk-vs-thor-2009-720p-bluray-dts-x264-don-part3-rar/3770161

BEZ HESLA
Návrat hore Goto down
Zobrazit informácie o autorovi http://warnerfilm.forumn.org
 
Hulk vs. Thor (2009)
Zobraziť predchádzajúcu tému Zobraziť nasledujúcu tému Návrat hore 
Strana 1 z 1

Povolenie tohoto fóra:Nemôžete odpovedať na témy v tomto fóre.
Vsetko zadarmo :: .::Download filmy::. :: .::Filmy s ceskymi a slovenskymi titulkami::.-
Prejdi na: