Vsetko zadarmo

Vsetko zadarmo
 
DomovFAQHľadaťRegistráciaZoznam užívateľovUžívateľské skupinyPrihlásenie

Share | 
 

 Harry a Hendersonovi / Harry and the Hendersons (1987)

Zobraziť predchádzajúcu tému Zobraziť nasledujúcu tému Goto down 
AutorSpráva
aismen
Mega Uploader
Mega Uploader


Počet príspevkov : 703
Registration date : 16.04.2008

OdoslaťPredmet: Harry a Hendersonovi / Harry and the Hendersons (1987)   Ut október 11, 2011 3:21 pm

Harry a Hendersonovci
Harry and the Hendersons
Harry a Hendersonovi


Rodinný / Komedie
USA, 1987, 110 min

CSFD

Režie:William Dear
Hudba:Bruce Broughton
Hrají:John Lithgow, Melinda Dillon, Kevin Peter Hall, David Suchet, Lainie Kazan, Don Ameche, M. Emmet Walsh, William Dear, Debbie Lee Carrington

Rodina Hendersonových táboří v přírodě. Při cestě domů srazí velké zvíře. Otec George zacouvá zpět a jde se podívat, zda je zvíře na živu. Je velmi překvapený, protože tvor vypadá jako mrtvý yetti. Naloží ho na střechu vozu a chtějí ho předat do některého muzea. Yetti však není mrtvý, v noci se probudí, vnikne do domu a chce jíst. Rodina si na něho pomalu začíná zvykat, poznává jeho vlastnosti, dokonce mu dá i jméno Harry. Chtějí si ho nechat, záhy se ale rozhodnou, že je správné ho vrátit do přírody, kde je zvyklý žít. George naláká Harryho do auta, ale v okamžiku, kdy se otočí k ostatním členům rodiny, Harry zmizí. Ve městě se začne šířit panika a zachvátí je honba na yettiho. Gerge zůstává v klidu do doby, než se do honu zapojí lovec LaFleur, jenž chodí po stopách yettiho už celá léta

INFO:
kód:
Format                          : AVI
Format/Info                      : Audio Video Interleave
File size                        : 1.37 GiB
Duration                        : 1h 50mn
Overall bit rate                : 1 765 Kbps
Writing application              : VirtualDubMod 1.5.4.1 (build 2178/release)
Writing library                  : VirtualDubMod build 2178/release

Video
ID                              : 0
Format                          : MPEG-4 Visual
Format profile                  : Advanced Simple@L5
Format settings, BVOP            : 1
Format settings, QPel            : No
Format settings, GMC            : No warppoints
Format settings, Matrix          : Custom
Codec ID                        : XVID
Codec ID/Hint                    : XviD
Duration                        : 1h 50mn
Bit rate                        : 1 566 Kbps
Width                            : 672 pixels
Height                          : 368 pixels
Display aspect ratio            : 16:9
Frame rate                      : 23.976 fps
Color space                      : YUV
Chroma subsampling              : 4:2:0
Bit depth                        : 8 bits
Scan type                        : Progressive
Compression mode                : Lossy
Bits/(Pixel*Frame)              : 0.264
Stream size                      : 1.21 GiB (89%)
Writing library                  : XviD 1.2.1 (UTC 2008-12-04)

Audio
ID                              : 1
Format                          : MPEG Audio
Format version                  : Version 1
Format profile                  : Layer 3
Mode                            : Joint stereo
Mode extension                  : MS Stereo
Codec ID                        : 55
Codec ID/Hint                    : MP3
Duration                        : 1h 50mn
Bit rate mode                    : Constant
Bit rate                        : 192 Kbps
Channel(s)                      : 2 channels
Sampling rate                    : 48.0 KHz
Compression mode                : Lossy
Stream size                      : 152 MiB (11%)
Alignment                        : Aligned on interleaves
Interleave, duration            : 83 ms (2.00 video frames)
Interleave, preload duration    : 504 ms
Writing library                  : LAME3.97
Encoding settings                : -m j -V 4 -q 2 -lowpass 18.6 -b 192
Language                        : Czech

DOWNLOAD:
hellshare
kód:
http://download.hellshare.sk/harry-a-hendersonovi-1987-cz-avi/3769799

euroshare
kód:
http://euroshare.eu/file/1938820/harry_a_hendersonovi_1987_cz.avi

BEZ HESLA
Návrat hore Goto down
Zobrazit informácie o autorovi http://warnerfilm.forumn.org
 
Harry a Hendersonovi / Harry and the Hendersons (1987)
Zobraziť predchádzajúcu tému Zobraziť nasledujúcu tému Návrat hore 
Strana 1 z 1

Povolenie tohoto fóra:Nemôžete odpovedať na témy v tomto fóre.
Vsetko zadarmo :: .::Download filmy::. :: .::Filmy s ceskym a slovenskym dabingom::.-
Prejdi na: