Vsetko zadarmo

Vsetko zadarmo
 
DomovFAQHľadaťRegistráciaZoznam užívateľovUžívateľské skupinyPrihlásenie

Share | 
 

 Cedar Rapids (2011)

Zobraziť predchádzajúcu tému Zobraziť nasledujúcu tému Goto down 
AutorSpráva
aismen
Mega Uploader
Mega Uploader


Počet príspevkov : 703
Registration date : 16.04.2008

OdoslaťPredmet: Cedar Rapids (2011)    Ut október 11, 2011 3:06 pm

Cedar Rapids
Cedar Rapids


Komedie
USA, 2011, 86 min

CSFD

Režie:Miguel Arteta
Hudba:Christophe Beck
Hrají:Sigourney Weaver, Alia Shawkat, Ed Helms, John C. Reilly, Rob Corddry, Anne Heche, Thomas Lennon, Kurtwood Smith, Isiah Whitlock Jr., Stephen Root

Nejzábavnější služební cesta všech dob je teď ještě bláznivější, protože přináší více divokých scén, šílených výstřelků a neskutečné legrace! Ed Helms (Pařba ve Vegas, Pařba v Bangkoku) a John C. Reilly (Bratři z donucení) vévodí hvězdnému obsazení komedie, která ukazuje, co se může stát… když se pojišťováci utrhnou ze řetězu! Nesmělý Tim Lippe (Helms) vyráží do “velkoměsta” Cedar Rapids na důležitou konferenci, kde mu k jeho smůle zkříží cestu zkušený vymetač večírků (Reilly). Netrvá moc dlouho a Tim už se domáhá vstupu na party, nahý se koupe v hotelovém bazénu a podléhá kouzlu svůdné mámy od dětí. Jestli Tim tenhle víkend přežije, jeho život nikdy nebude jako dřív!

INFO:
kód:
Format                          : AVI
Format/Info                      : Audio Video Interleave
File size                        : 700 MiB
Duration                        : 1h 26mn
Overall bit rate                : 1 125 Kbps
Writing application              : VirtualDubMod 1.5.10.2 (build 2540/release)
Writing library                  : VirtualDubMod build 2540/release

Video
ID                              : 0
Format                          : MPEG-4 Visual
Format profile                  : Advanced Simple@L5
Format settings, BVOP            : 4
Format settings, QPel            : No
Format settings, GMC            : No warppoints
Format settings, Matrix          : Default (H.263)
Muxing mode                      : Packed bitstream
Codec ID                        : XVID
Codec ID/Hint                    : XviD
Duration                        : 1h 26mn
Bit rate                        : 988 Kbps
Width                            : 672 pixels
Height                          : 368 pixels
Display aspect ratio            : 16:9
Frame rate                      : 23.976 fps
Color space                      : YUV
Chroma subsampling              : 4:2:0
Bit depth                        : 8 bits
Scan type                        : Progressive
Compression mode                : Lossy
Bits/(Pixel*Frame)              : 0.167
Stream size                      : 614 MiB (88%)
Writing library                  : XviD 1.2.1 (UTC 2008-12-04)

Audio
ID                              : 1
Format                          : MPEG Audio
Format version                  : Version 1
Format profile                  : Layer 3
Mode                            : Joint stereo
Mode extension                  : MS Stereo
Codec ID                        : 55
Codec ID/Hint                    : MP3
Duration                        : 1h 26mn
Bit rate mode                    : Constant
Bit rate                        : 128 Kbps
Channel(s)                      : 2 channels
Sampling rate                    : 48.0 KHz
Compression mode                : Lossy
Delay relative to video          : 24ms
Stream size                      : 79.6 MiB (11%)
Alignment                        : Aligned on interleaves
Interleave, duration            : 42 ms (1.00 video frame)
Interleave, preload duration    : 504 ms

DOWNLOAD:
hellshare
kód:
http://download.hellshare.sk/cedar-rapids-2011-cz-avi/3769706

euroshare
kód:
http://euroshare.eu/file/1938806/cedar_rapids_2011_cz.avi

BEZ HESLA
Návrat hore Goto down
Zobrazit informácie o autorovi http://warnerfilm.forumn.org
 
Cedar Rapids (2011)
Zobraziť predchádzajúcu tému Zobraziť nasledujúcu tému Návrat hore 
Strana 1 z 1

Povolenie tohoto fóra:Nemôžete odpovedať na témy v tomto fóre.
Vsetko zadarmo :: .::Download filmy::. :: .::Filmy s ceskym a slovenskym dabingom::.-
Prejdi na: