Vsetko zadarmo

Vsetko zadarmo
 
DomovFAQHľadaťRegistráciaZoznam užívateľovUžívateľské skupinyPrihlásenie

Share | 
 

 Moje chůva upírka /My Babysitter's a Vampire (2011)

Zobraziť predchádzajúcu tému Zobraziť nasledujúcu tému Goto down 
AutorSpráva
aismen
Mega Uploader
Mega Uploader


Počet príspevkov : 703
Registration date : 16.04.2008

OdoslaťPredmet: Moje chůva upírka /My Babysitter's a Vampire (2011)   Ne október 09, 2011 8:45 pm

My Babysitter's a Vampire
Moje chůva upírka


Dobrodružný / Komedie / Fantasy
Kanada, 2010, 85 min

CSFD

Režie:Bruce McDonald
Hrají:Ari Cohen, Kate Todd, Laura DeCarteret, Joe Dinicol, Jamie Johnston

Ethan Morgan je podivínský kluk v prvním ročníku střední školy, kterému rodiče nevěří natolik, aby ho nechali hlídat jeho mladší sestru. Na hlídání si tedy pozvou Ericu, dívku, která chodí do stejné školy jako Ethan. Po cestě na hlídání ale Erica narazí na Jesse a Sarah. Ukáže se, že Jesse je upír a Erica se rozhodne místo hlídání jít na party, kterou pořádá. Místo ní jde hlídat Sarah. Ethan a jeho kamarád Benny ale brzy odhalí, že Sarah má jedno temné tajemství… Zatímco příběh pokračuje a všude okolo se začnou vynořovat noví a noví upíři, se tito dva mladíci vydávají vstříc nejnapínavější noci svého života.

INFO:
kód:
Format                          : AVI
Format/Info                      : Audio Video Interleave
File size                        : 1.14 GiB
Duration                        : 1h 17mn
Overall bit rate                : 2 114 Kbps
Movie name                      : LG_VDR.Title1.DVDRip
Writing application              : Lavf52.33.0
Original source form/Name        : LG_VDR

Video
ID                              : 0
Format                          : xvid
Codec ID                        : xvid
Duration                        : 1h 17mn
Bit rate                        : 1 847 Kbps
Width                            : 720 pixels
Height                          : 540 pixels
Display aspect ratio            : 4:3
Frame rate                      : 25.000 fps
Bits/(Pixel*Frame)              : 0.190
Stream size                      : 1 018 MiB (87%)

Audio
ID                              : 1
Format                          : AC-3
Format/Info                      : Audio Coding 3
Mode extension                  : CM (complete main)
Codec ID                        : 2000
Duration                        : 1h 17mn
Bit rate mode                    : Constant
Bit rate                        : 256 Kbps
Channel(s)                      : 2 channels
Channel positions                : Front: L R
Sampling rate                    : 48.0 KHz
Bit depth                        : 16 bits
Compression mode                : Lossy
Stream size                      : 141 MiB (12%)
Alignment                        : Aligned on interleaves
Interleave, duration            : 32 ms (0.80 video frame)
Interleave, preload duration    : 32 ms

DOWNLOAD:
hellshare
kód:
http://download.hellshare.sk/my-babysitter-s-a-vampire-2011-avi/3759113

BEZ HESLA
Návrat hore Goto down
Zobrazit informácie o autorovi http://warnerfilm.forumn.org
 
Moje chůva upírka /My Babysitter's a Vampire (2011)
Zobraziť predchádzajúcu tému Zobraziť nasledujúcu tému Návrat hore 
Strana 1 z 1

Povolenie tohoto fóra:Nemôžete odpovedať na témy v tomto fóre.
Vsetko zadarmo :: .::Download filmy::. :: .::Filmy s ceskym a slovenskym dabingom::.-
Prejdi na: