Vsetko zadarmo

Vsetko zadarmo
 
DomovFAQHľadaťRegistráciaZoznam užívateľovUžívateľské skupinyPrihlásenie

Share | 
 

 Nebezpečná sieť / Hackers (1995)

Zobraziť predchádzajúcu tému Zobraziť nasledujúcu tému Goto down 
AutorSpráva
aismen
Mega Uploader
Mega Uploader


Počet príspevkov : 703
Registration date : 16.04.2008

OdoslaťPredmet: Nebezpečná sieť / Hackers (1995)   Ne október 09, 2011 8:05 pm

Hackeri
Hackers
Nebezpečná síť


Thriller / Krimi / Akční
USA, 1995, 107 min

CSFD

Režie:Iain Softley
Hudba:Simon Boswell
Hrají:Jonny Lee Miller, Angelina Jolie, Jesse Bradford, Matthew Lillard, Renoly Santiago, Fisher Stevens, Alberta Watson, Lorraine Bracco, Wendell Pierce, Marc Anthony, Felicity Huffman, William DeMeo, Thomas Hill, Olegar Fedoro, Michael Gaston, Laurence Mason, Penn Jillette, Naoko Mori, Gary Howard Klar

Firemnímu nováčkovi, tzv. hackerovi - počítačovému pirátovi se při práci s počítačem v jedné významné korporaci povede něco téměř nemožného - nabourá se do databáze bedlivě střeženého podnikového superpočítače. Přitom náhodně objevuje výborně promyšlenou machinaci, která může vést až k vážnému ohrožení životního prostředí. FBI je mu v patách, ale jeho hlavním nepřítelem je duševně nemocný superprogramátor. Stvořen k zločinu nedává nic v sázku. Mladý pirát a jeho přátelé zahajují bitvu v počítačovém prostoru - za svoji záchranu a odvrácení světové katastrofy...

INFO:
kód:
Format                          : AVI
Format/Info                      : Audio Video Interleave
File size                        : 608 MiB
Duration                        : 1h 36mn
Overall bit rate                : 881 Kbps
Writing library                  : VirtualDub build 10015/release

Video
ID                              : 0
Format                          : MPEG-4 Visual
Codec ID                        : DIV3
Codec ID/Hint                    : DivX 3 Low
Duration                        : 1h 36mn
Bit rate                        : 808 Kbps
Width                            : 320 pixels
Height                          : 240 pixels
Display aspect ratio            : 4:3
Frame rate                      : 25.000 fps
Color space                      : YUV
Chroma subsampling              : 4:2:0
Bit depth                        : 8 bits
Compression mode                : Lossy
Bits/(Pixel*Frame)              : 0.421
Stream size                      : 557 MiB (92%)

Audio
ID                              : 1
Format                          : MPEG Audio
Format version                  : Version 1
Format profile                  : Layer 3
Codec ID                        : 55
Codec ID/Hint                    : MP3
Duration                        : 1h 36mn
Bit rate mode                    : Constant
Bit rate                        : 64.0 Kbps
Channel(s)                      : 1 channel
Sampling rate                    : 44.1 KHz
Compression mode                : Lossy
Stream size                      : 43.9 MiB (7%)
Alignment                        : Split accross interleaves
Interleave, duration            : 40 ms (1.00 video frame)
Interleave, preload duration    : 443 ms

DOWNLOAD:
hellshare
kód:
http://download.hellshare.sk/hacker-avi/3758915

BEZ HESLA
Návrat hore Goto down
Zobrazit informácie o autorovi http://warnerfilm.forumn.org
 
Nebezpečná sieť / Hackers (1995)
Zobraziť predchádzajúcu tému Zobraziť nasledujúcu tému Návrat hore 
Strana 1 z 1

Povolenie tohoto fóra:Nemôžete odpovedať na témy v tomto fóre.
Vsetko zadarmo :: .::Download filmy::. :: .::Filmy s ceskym a slovenskym dabingom::.-
Prejdi na: