Vsetko zadarmo

Vsetko zadarmo
 
DomovFAQHľadaťRegistráciaZoznam užívateľovUžívateľské skupinyPrihlásenie

Share | 
 

 Želvy ninja / TMNT (2007)

Zobraziť predchádzajúcu tému Zobraziť nasledujúcu tému Goto down 
AutorSpráva
aismen
Mega Uploader
Mega Uploader


Počet príspevkov : 703
Registration date : 16.04.2008

OdoslaťPredmet: Želvy ninja / TMNT (2007)   Ne október 09, 2011 5:50 pm

TMNT: Ninja Korytnačky
TMNT
Želvy Ninja


Animovaný / Akční / Komedie / Dobrodružný
USA / Hong Kong, 2007, 87 min



Režie:Kevin Munroe
Hudba:Klaus Badelt
Hrají:Nolan North, Mitchell Whitfield, Mako, Sarah Michelle Gellar, Chris Evans, Ziyi Zhang, Patrick Stewart, Kevin Smith, James Arnold Taylor, Laurence Fishburne, Billy West, Grey DeLisle, Fred Tatasciore, Jim Cummings, Phil LaMarr, Jess Harnell, Jennifer Hale, Jeff Bennett, Dee Bradley Baker, John Di Maggio, Tara Strong


Sú zelené a dostali sa do kontaktu s rádioaktívnym odpadom, ale je s nimi sranda, ako s máloktorými živočíchmi. O kom je reč? No predsa o Ninja Korytnačkách. Máloktorý animák Vás sprevádzal detstvom, ako tento. Už prvé zábery z teaseru hovoria, že pôjde naozaj o veľký projekt, ktorý má pod palcom trikový mág Kevin Munroe. Film je vyrábaný CGI technológiou, ktorá zaručuje naozajstnú kvalitu.


kód:
Format                          : AVI
Format/Info                      : Audio Video Interleave
File size                        : 703 MiB
Duration                        : 1h 23mn
Overall bit rate                : 1 178 Kbps
Writing application              : VirtualDubMod 1.5.4.1 (build 2178/release)
Writing library                  : VirtualDubMod build 2178/release

Video
ID                              : 0
Format                          : MPEG-4 Visual
Format profile                  : Advanced Simple@L5
Format settings, BVOP            : 1
Format settings, QPel            : No
Format settings, GMC            : No warppoints
Format settings, Matrix          : Custom
Codec ID                        : XVID
Codec ID/Hint                    : XviD
Duration                        : 1h 23mn
Bit rate                        : 1 044 Kbps
Width                            : 608 pixels
Height                          : 352 pixels
Display aspect ratio            : 16:9
Frame rate                      : 25.000 fps
Color space                      : YUV
Chroma subsampling              : 4:2:0
Bit depth                        : 8 bits
Scan type                        : Progressive
Compression mode                : Lossy
Bits/(Pixel*Frame)              : 0.195
Stream size                      : 623 MiB (89%)
Writing library                  : XviD 1.2.0.dev47 (UTC 2006-11-01)

Audio
ID                              : 1
Format                          : MPEG Audio
Format version                  : Version 1
Format profile                  : Layer 3
Mode                            : Joint stereo
Mode extension                  : MS Stereo
Codec ID                        : 55
Codec ID/Hint                    : MP3
Duration                        : 1h 23mn
Bit rate mode                    : Variable
Bit rate                        : 121 Kbps
Nominal bit rate                : 128 Kbps
Channel(s)                      : 2 channels
Sampling rate                    : 48.0 KHz
Compression mode                : Lossy
Stream size                      : 72.1 MiB (10%)
Alignment                        : Aligned on interleaves
Interleave, duration            : 24 ms (0.60 video frame)
Interleave, preload duration    : 152 ms
Writing library                  : LAME3.97
Encoding settings                : -m j -V 4 -q 2 -lowpass 17 --abr 128
Language                        : Czech


kód:
http://download.hellshare.sk/zelvy-ninja-avi/3758069

Návrat hore Goto down
Zobrazit informácie o autorovi http://warnerfilm.forumn.org
 
Želvy ninja / TMNT (2007)
Zobraziť predchádzajúcu tému Zobraziť nasledujúcu tému Návrat hore 
Strana 1 z 1

Povolenie tohoto fóra:Nemôžete odpovedať na témy v tomto fóre.
Vsetko zadarmo :: .::Download filmy::. :: .::Filmy s ceskym a slovenskym dabingom::.-
Prejdi na: