Vsetko zadarmo

Vsetko zadarmo
 
DomovFAQHľadaťRegistráciaZoznam užívateľovUžívateľské skupinyPrihlásenie

Share | 
 

 Maturiťák / Prom (2011)

Zobraziť predchádzajúcu tému Zobraziť nasledujúcu tému Goto down 
AutorSpráva
aismen
Mega Uploader
Mega Uploader


Počet príspevkov : 703
Registration date : 16.04.2008

OdoslaťPredmet: Maturiťák / Prom (2011)   Ne október 09, 2011 4:12 pm

Prom
Maturiťák


Komedie / Drama
USA, 2011, 104 min



Režie:Joe Nussbaum
Hudba:Deborah Lurie
Hrají:Aimee Teegarden, Thomas McDonell, DeVaughn Nixon, Danielle Campbell, Yin Chang, Jared Kusnitz, Nolan Sotillo, Cameron Monaghan, Kylie Bunbury, Joe Adler, Jonathan Keltz, Janelle Ortiz, Christine Elise, Dean Norris, Jere Burns, Madison Riley, Faith Ford, Amy Pietz, Trevor Peterson


kód:
Format                          : AVI
Format/Info                      : Audio Video Interleave
File size                        : 786 MiB
Duration                        : 1h 43mn
Overall bit rate                : 1 058 Kbps
Writing application              : VirtualDubMod 1.5.10.2 (build 2540/release)
Writing library                  : VirtualDubMod build 2540/release

Video
ID                              : 0
Format                          : MPEG-4 Visual
Format profile                  : Advanced Simple@L5
Format settings, BVOP            : 2
Format settings, QPel            : No
Format settings, GMC            : No warppoints
Format settings, Matrix          : Default (H.263)
Codec ID                        : XVID
Codec ID/Hint                    : XviD
Duration                        : 1h 43mn
Bit rate                        : 921 Kbps
Width                            : 640 pixels
Height                          : 352 pixels
Display aspect ratio            : 16:9
Frame rate                      : 23.976 fps
Color space                      : YUV
Chroma subsampling              : 4:2:0
Bit depth                        : 8 bits
Scan type                        : Progressive
Compression mode                : Lossy
Bits/(Pixel*Frame)              : 0.171
Stream size                      : 684 MiB (87%)
Writing library                  : XviD 1.2.1 (UTC 2008-12-04)

Audio
ID                              : 1
Format                          : MPEG Audio
Format version                  : Version 1
Format profile                  : Layer 3
Mode                            : Joint stereo
Mode extension                  : MS Stereo
Codec ID                        : 55
Codec ID/Hint                    : MP3
Duration                        : 1h 43mn
Bit rate mode                    : Constant
Bit rate                        : 128 Kbps
Channel(s)                      : 2 channels
Sampling rate                    : 48.0 KHz
Compression mode                : Lossy
Delay relative to video          : 24ms
Stream size                      : 95.0 MiB (12%)
Alignment                        : Aligned on interleaves
Interleave, duration            : 42 ms (1.00 video frame)
Interleave, preload duration    : 504 ms


kód:
http://download.hellshare.sk/maturitak-avi/3757385

kód:
http://www.upnito.sk/subor/cc999b05625743930dc5c81431034a7e.html

Návrat hore Goto down
Zobrazit informácie o autorovi http://warnerfilm.forumn.org
 
Maturiťák / Prom (2011)
Zobraziť predchádzajúcu tému Zobraziť nasledujúcu tému Návrat hore 
Strana 1 z 1

Povolenie tohoto fóra:Nemôžete odpovedať na témy v tomto fóre.
Vsetko zadarmo :: .::Download filmy::. :: .::Filmy s ceskym a slovenskym dabingom::.-
Prejdi na: