Vsetko zadarmo

Vsetko zadarmo
 
DomovFAQHľadaťRegistráciaZoznam užívateľovUžívateľské skupinyPrihlásenie

Share | 
 

 Všemocný / Limitless (2011)

Zobraziť predchádzajúcu tému Zobraziť nasledujúcu tému Goto down 
AutorSpráva
aismen
Mega Uploader
Mega Uploader


Počet príspevkov : 703
Registration date : 16.04.2008

OdoslaťPredmet: Všemocný / Limitless (2011)   Ne október 09, 2011 1:01 pm

Všemocný
Limitless
(2011)



Mysteriózní / Sci-Fi / Thriller
USA, 2011, 105 min

Režie: Neil Burger
Hudba: Paul Leonard-Morgan
Hrají: Bradley
Cooper, Robert De Niro, Anna Friel, Abbie Cornish, Johnny Whitworth,
Robert John Burke, Andrew Howard, Tomas Arana, Patricia Kalember, Brian
Anthony Wilson, Jennifer Butler, T.V. Carpio


Eddie
Morra (Bradley Cooper) je zlenivělý spisovatel, kterému se začíná
hroutit svět. Chtějí ho vyhodit z práce a rozchod s přítelkyní Lindy
(Abbie Cornish) ho jen utvrdí v přesvědčení, že jeho život je v troskách
a budoucnost nemůže přinést nic než další zklamání. To se ale změní ve
chvíli, kdy Eddieho navštíví jeho starý přítel z dětství, Vernon (Johnny
Whitworth). Nabídne mu pilulky NZT - utajovanou drogu, která umožňuje
využívat mozek na 100 % a dodává člověku extrémní sebevědomí. Eddie se
nechává zlákat neodolatelnými účinky NZT a naprosto droze propadne.
Najednou je schopen využívat informace s ohromnou efektivitou. Vše, co
kdy viděl, slyšel a přečetl, zvládá zpracovat a zužitkovat. Neustálá
stimulace drogou ho katapultuje mezi elitu finančního sektoru. Jeho
nadlidský výkon a úspěch přitáhne pozornost finančního magnáta Carla Van
Loona (Robert De Niro), který v drogou posíleném Eddiem vidí
příležitost, jak vydělat miliardy. Zázračná droga má ale nebezpečné
vedlejší účinky a Eddie se ocitá v ohrožení života. Musí se skrývat,
nájemní vrazi jsou však stále blíž. Podaří se mu uniknout, nebo doplatí
na zrádnou představu, že ho droga učiní všemocným?




kód:
Format                          : AVI
Format/Info                      : Audio Video Interleave
File size                        : 1.73 GiB
Duration                        : 1h 40mn
Overall bit rate                : 2 470 Kbps
Writing application              : VirtualDubMod 1.5.10.2 (build 2540/release)
Writing library                  : VirtualDubMod build 2540/release

ID                              : 0
Format                          : MPEG-4 Visual
Format profile                  : Advanced Simple@L5
Format settings, BVOP            : No
Format settings, QPel            : No
Format settings, GMC            : No warppoints
Format settings, Matrix          : Custom
Codec ID                        : XVID
Codec ID/Hint                    : XviD
Duration                        : 1h 40mn
Bit rate                        : 2 013 Kbps
Width                            : 720 pixels
Height                          : 304 pixels
Display aspect ratio            : 2.35:1
Frame rate                      : 25.000 fps
Color space                      : YUV
Chroma subsampling              : 4:2:0
Bit depth                        : 8 bits
Scan type                        : Progressive
Compression mode                : Lossy
Bits/(Pixel*Frame)              : 0.368
Stream size                      : 1.41 GiB (81%)
Writing library                  : XviD 63

ID                              : 1
Format                          : AC-3
Format/Info                      : Audio Coding 3
Mode extension                  : CM (complete main)
Codec ID                        : 2000
Duration                        : 1h 40mn
Bit rate mode                    : Constant
Bit rate                        : 448 Kbps
Channel(s)                      : 6 channels
Channel positions                : Front: L C R, Side: L R, LFE
Sampling rate                    : 48.0 KHz
Bit depth                        : 16 bits
Compression mode                : Lossy
Stream size                      : 322 MiB (18%)
Alignment                        : Split accross interleaves
Interleave, duration            : 40 ms (1.00 video frame)
Interleave, preload duration    : 500 ms


kód:
http://download.hellshare.sk/vsemocny-avi/3465663/

Návrat hore Goto down
Zobrazit informácie o autorovi http://warnerfilm.forumn.org
 
Všemocný / Limitless (2011)
Zobraziť predchádzajúcu tému Zobraziť nasledujúcu tému Návrat hore 
Strana 1 z 1

Povolenie tohoto fóra:Nemôžete odpovedať na témy v tomto fóre.
Vsetko zadarmo :: .::Download filmy::. :: .::Filmy s ceskym a slovenskym dabingom::.-
Prejdi na: