Vsetko zadarmo

Vsetko zadarmo
 
DomovFAQHľadaťRegistráciaZoznam užívateľovUžívateľské skupinyPrihlásenie

Share | 
 

 Riskni to s Polly / Along come Polly (2004)

Zobraziť predchádzajúcu tému Zobraziť nasledujúcu tému Goto down 
AutorSpráva
aismen
Mega Uploader
Mega Uploader


Počet príspevkov : 703
Registration date : 16.04.2008

OdoslaťPredmet: Riskni to s Polly / Along come Polly (2004)   Ne október 09, 2011 8:03 am

Riskni to s Polly
Along Came Polly
Riskni to s Polly


Komedie / Romantický
USA, 2004, 90 min



Režie:John Hamburg
Hudba:Theodore Shapiro
Hrají:Ben Stiller, Jennifer Aniston, Philip Seymour Hoffman, Debra Messing, Missi Pyle, Kevin Hart, Kym Whitley, Caroline Aaron, Alec Baldwin, Hank Azaria, Jsu Garcia, Bryan Brown, Michele Lee, Masi Oka, Judah Friedlander, Cheryl Hines, Mark Adair-Rios, Theodore Shapiro

Reuben Feffera (Ben Stiller), je učiněný smolař: jeho čerstvá novomanželka ho přímo na líbánkách podvede se svalnatým potápěčem, a vyhodí tak všechny jeho milostné i životní plány do povětří. Náhoda ho svede dohromady s dobrodružně založenou Polly (Jennifer Aniston), jeho dávnou kamarádkou z dětství, čímž se jeho život dostane do divoké změti extrémních sportů, kořeněného jídla, fretek a rytmů salsy... s neuvěřitelnými následky. Může se putičkář Reuben, jež chce mít vše neustále pod kontrolou, změnit a začít žít přítomností?


kód:
Format                          : AVI
Format/Info                      : Audio Video Interleave
Format profile                  : OpenDML
File size                        : 1.35 GiB
Duration                        : 1h 26mn
Overall bit rate                : 2 233 Kbps
Writing application              : Lavf52.78.4

Video
ID                              : 0
Format                          : MPEG-4 Visual
Format profile                  : Advanced Simple@L5
Format settings, BVOP            : 2
Format settings, QPel            : No
Format settings, GMC            : No warppoints
Format settings, Matrix          : Default (H.263)
Muxing mode                      : Packed bitstream
Codec ID                        : DX50
Codec ID/Hint                    : DivX 5
Duration                        : 1h 26mn
Bit rate                        : 1 898 Kbps
Width                            : 720 pixels
Height                          : 388 pixels
Display aspect ratio            : 1.856
Frame rate                      : 25.000 fps
Color space                      : YUV
Chroma subsampling              : 4:2:0
Bit depth                        : 8 bits
Scan type                        : Progressive
Compression mode                : Lossy
Bits/(Pixel*Frame)              : 0.272
Stream size                      : 1.15 GiB (85%)
Writing library                  : XviD 1.2.1 (UTC 2008-12-04)

Audio
ID                              : 1
Format                          : MPEG Audio
Format version                  : Version 1
Format profile                  : Layer 3
Mode                            : Joint stereo
Codec ID                        : 55
Codec ID/Hint                    : MP3
Duration                        : 1h 26mn
Bit rate mode                    : Constant
Bit rate                        : 320 Kbps
Channel(s)                      : 2 channels
Sampling rate                    : 48.0 KHz
Compression mode                : Lossy
Stream size                      : 51.2 MiB (4%)
Alignment                        : Aligned on interleaves
Interleave, duration            : 93 ms (2.32 video frames)
Interleave, preload duration    : 24 ms
Writing library                  : LAME3.98.4


kód:
http://download.hellshare.sk/riskni-to-s-polly-avi/3744571

Návrat hore Goto down
Zobrazit informácie o autorovi http://warnerfilm.forumn.org
 
Riskni to s Polly / Along come Polly (2004)
Zobraziť predchádzajúcu tému Zobraziť nasledujúcu tému Návrat hore 
Strana 1 z 1

Povolenie tohoto fóra:Nemôžete odpovedať na témy v tomto fóre.
Vsetko zadarmo :: .::Download filmy::. :: .::Filmy s ceskym a slovenskym dabingom::.-
Prejdi na: