Vsetko zadarmo

Vsetko zadarmo
 
DomovFAQHľadaťRegistráciaZoznam užívateľovUžívateľské skupinyPrihlásenie

Share | 
 

 Princ a pruďas / Your Highness (2011)

Zobraziť predchádzajúcu tému Zobraziť nasledujúcu tému Goto down 
AutorSpráva
aismen
Mega Uploader
Mega Uploader


Počet príspevkov : 703
Registration date : 16.04.2008

OdoslaťPredmet: Princ a pruďas / Your Highness (2011)   Ne október 09, 2011 7:15 am

Princ a Pruďas
Your Highness
Princ a pruďas


Komedie / Dobrodružný / Fantasy
USA, 2011, 102 min (Director's cut: 105 min)



Režie:David Gordon Green
Hudba:Steve Jablonsky
Hrají:Danny R. McBride, James Franco, Natalie Portman, Zooey Deschanel, Justin Theroux, Damian Lewis, Charles Dance, Toby Jones, Brian Steele, Eva Wyrwal, Julian Rhind-Tutt, Rasmus Hardiker

Princ Thadeous (McBride) se ze všeho nejlíp umí povalovat a závidět bratrovi, princi Fabiousovi (Franco) jeho proslulost a sličnou dívku Belladonnu (Zooey Deschanel), kterou si přivezl z poslední výpravy, aby ji pojal za manželku. Než se svatební zvony stačí pořádně rozeznít, objeví se na scéně čaroděj Leezar (Justin Theroux), jenž se Belladonny zmocní a unese ji na svůj hrad. Aby žalem zlomený ženich nebyl na její záchranu sám, vnutí mu otec král jako doprovod mladšího bratra. Jenže Thadeous ještě nikdy v životě na žádné hrdinské výpravě nebyl, a tak neví, jak se například jedná s kouzelníkem pod vlivem, vícehlavou saní nebo krásnou, leč permanentně naštvanou a nebezpečnou lučištnicí Isabel (Portman). Navzdory mnoha nebezpečenstvím a život ohrožujícím situacím princové krok za krokem postupují vstříc Belladonnině záchraně. A divák, místo toho aby jim zuřivě držel pěsti, se baví nad jejich i na středověk velmi nekorektním slovníkem a absurdními situacemi, do kterých se se snad ještě žádní filmoví rytíři nikdy nedostali.


kód:
Format                          : AVI
Format/Info                      : Audio Video Interleave
File size                        : 700 MiB
Duration                        : 1h 38mn
Overall bit rate                : 998 Kbps
Writing application              : VirtualDubMod 1.5.4.1 (build 2178/release)
Writing library                  : VirtualDubMod build 2178/release

Video
ID                              : 0
Format                          : MPEG-4 Visual
Format profile                  : Advanced Simple@L5
Format settings, BVOP            : 1
Format settings, QPel            : No
Format settings, GMC            : No warppoints
Format settings, Matrix          : Custom
Codec ID                        : XVID
Codec ID/Hint                    : XviD
Duration                        : 1h 38mn
Bit rate                        : 871 Kbps
Width                            : 608 pixels
Height                          : 256 pixels
Display aspect ratio            : 2.40:1
Frame rate                      : 25.000 fps
Color space                      : YUV
Chroma subsampling              : 4:2:0
Bit depth                        : 8 bits
Scan type                        : Progressive
Compression mode                : Lossy
Bits/(Pixel*Frame)              : 0.224
Stream size                      : 611 MiB (87%)
Writing library                  : XviD 64

Audio
ID                              : 1
Format                          : MPEG Audio
Format version                  : Version 1
Format profile                  : Layer 3
Mode                            : Joint stereo
Mode extension                  : MS Stereo
Codec ID                        : 55
Codec ID/Hint                    : MP3
Duration                        : 1h 38mn
Bit rate mode                    : Constant
Bit rate                        : 32.0 Kbps
Channel(s)                      : 2 channels
Sampling rate                    : 48.0 KHz
Compression mode                : Lossy
Stream size                      : 79.8 MiB (11%)
Alignment                        : Aligned on interleaves
Interleave, duration            : 24 ms (0.60 video frame)
Interleave, preload duration    : 141 ms
Writing library                  : LAME3.98.2
Language                        : Czech


kód:
http://download.hellshare.sk/princ-a-prudas-avi/3743700

Návrat hore Goto down
Zobrazit informácie o autorovi http://warnerfilm.forumn.org
 
Princ a pruďas / Your Highness (2011)
Zobraziť predchádzajúcu tému Zobraziť nasledujúcu tému Návrat hore 
Strana 1 z 1

Povolenie tohoto fóra:Nemôžete odpovedať na témy v tomto fóre.
Vsetko zadarmo :: .::Download filmy::. :: .::Filmy s ceskym a slovenskym dabingom::.-
Prejdi na: