Vsetko zadarmo

Vsetko zadarmo
 
DomovFAQHľadaťRegistráciaZoznam užívateľovUžívateľské skupinyPrihlásenie

Share | 
 

 X-Men 2 / X2 (2003)

Zobraziť predchádzajúcu tému Zobraziť nasledujúcu tému Goto down 
AutorSpráva
aismen
Mega Uploader
Mega Uploader


Počet príspevkov : 703
Registration date : 16.04.2008

OdoslaťPredmet: X-Men 2 / X2 (2003)   Pi október 07, 2011 7:39 pm

X-Men 2
X-Men 2
X-Men 2


Sci-Fi / Akční / Dobrodružný
USA / Kanada, 2003, 128 min



Režie:Bryan Singer
Hudba:John Ottman
Hrají:Patrick Stewart, Hugh Jackman, Ian McKellen, Halle Berry, Famke Janssen, James Marsden, Rebecca Romijn, Anna Paquin, Alan Cumming, Brian Cox, Bruce Davison, Aaron Stanford, Kelly Hu, Katie Stuart, Chiara Zanni, Brad Loree, Steve Bacic, Aaron Douglas, David Kaye, Newton Thomas Sigel, Shawn Ashmore, Daniel Cudmore, Nolan Gerard Funk, Peter Wingfield, Ty Olsson, Layke Anderson, Roger R. Cross, James Kirk, Emily Hirst, Valerie Tian

X-Meni. Narodili se s jedinečnou genetickou mutací, která jim umožňuje vládnout nadpřirozenými schopnostmi. Pod vlivem profesora Charlese Xaviera (Patrick Stewart) slouží lidstvu. Chrání svět. Ten jim však nedůvěřuje a bojí se jich. Po nesmyslném pokusu o atentát na prezidenta Spojených států, který údajně spáchal neznámý mutant, se veřejnost dovolává zákona, který má mutanty dostat pod kontrolu. V čele militantně anti-mutantniho hnuti stojí armádní velitel a vědec William Stryker (Brian Cox), o němž se tvrdí, že na mutantech prováděl pokusy. Mutanty nenávidí a hodlá je totálně zlikvidovat. Když zjistí, že jeho vlastní syn je mutant, bez milosti ho zabije. Stryker měl v minulosti co do činění také s Wolverinem (Hugh Jackman) a zná tajemství jeho minulosti. Když Wolverine pátrá po svém původu, uvede Stryker do pohybu svůj anti-mutantní program. Jsou však i mutanti, kteří se proti lidské civilizaci postavili. Jeden z nich, Magento (Ian McKellen), právě unikl z vězení. Je nepřítelem X-Menů. V situaci, kdy se všichni mutanti stali štvanci, navrhne X-Menům spojenectví proti společnému nepříteli - Strykerovi. X-Meni i jejich spojenci se spolu vydávají na nejnebezpečnější misi v životě.



kód:
Format                          : AVI
Format/Info                      : Audio Video Interleave
File size                        : 698 MiB
Duration                        : 1h 39mn
Overall bit rate                : 982 Kbps
Writing application              : VirtualDubMod 1.5.10.1 (build 2439/release)
Writing library                  : VirtualDubMod build 2439/release

Video
ID                              : 0
Format                          : MPEG-4 Visual
Format profile                  : Advanced Simple@L5
Format settings, BVOP            : 2
Format settings, QPel            : No
Format settings, GMC            : No warppoints
Format settings, Matrix          : Custom
Codec ID                        : XVID
Codec ID/Hint                    : XviD
Duration                        : 1h 39mn
Bit rate                        : 836 Kbps
Width                            : 640 pixels
Height                          : 272 pixels
Display aspect ratio            : 2.35:1
Frame rate                      : 25.000 fps
Color space                      : YUV
Chroma subsampling              : 4:2:0
Bit depth                        : 8 bits
Scan type                        : Progressive
Compression mode                : Lossy
Bits/(Pixel*Frame)              : 0.192
Stream size                      : 594 MiB (85%)
Writing library                  : XviD 1.1.0 (UTC 2005-11-22)

Audio
ID                              : 1
Format                          : MPEG Audio
Format version                  : Version 1
Format profile                  : Layer 3
Codec ID                        : 55
Codec ID/Hint                    : MP3
Duration                        : 1h 39mn
Bit rate mode                    : Variable
Bit rate                        : 133 Kbps
Minimum bit rate                : 128 Kbps
Channel(s)                      : 2 channels
Sampling rate                    : 48.0 KHz
Compression mode                : Lossy
Delay relative to video          : 288ms
Stream size                      : 94.8 MiB (14%)
Alignment                        : Split accross interleaves
Interleave, duration            : 24 ms (0.60 video frame)
Interleave, preload duration    : 899 ms
Writing library                  : LAME3.91
Encoding settings                : -m s -V 0 -q 2 -lowpass 20.4 --vbr-old -b 1


kód:
http://download.hellshare.sk/x-men-3-the-last-stand-cz-avi/3743217

Návrat hore Goto down
Zobrazit informácie o autorovi http://warnerfilm.forumn.org
 
X-Men 2 / X2 (2003)
Zobraziť predchádzajúcu tému Zobraziť nasledujúcu tému Návrat hore 
Strana 1 z 1

Povolenie tohoto fóra:Nemôžete odpovedať na témy v tomto fóre.
Vsetko zadarmo :: .::Download filmy::. :: .::Filmy s ceskym a slovenskym dabingom::.-
Prejdi na: