Vsetko zadarmo

Vsetko zadarmo
 
DomovFAQHľadaťRegistráciaZoznam užívateľovUžívateľské skupinyPrihlásenie

Share | 
 

 X-Men / X-Men (2000)

Zobraziť predchádzajúcu tému Zobraziť nasledujúcu tému Goto down 
AutorSpráva
aismen
Mega Uploader
Mega Uploader


Počet príspevkov : 703
Registration date : 16.04.2008

OdoslaťPredmet: X-Men / X-Men (2000)   Pi október 07, 2011 7:01 pm

X-Men
X-Men
X-Men


Akční / Sci-Fi / Thriller
USA / Kanada, 2000, 104 min



Režie:Bryan Singer
Hudba:Michael Kamen
Hrají:Hugh Jackman, Patrick Stewart, Ian McKellen, Famke Janssen, James Marsden, Halle Berry, Anna Paquin, Ray Park, Rebecca Romijn, Bruce Davison, Shawn Roberts, Matt Weinberg, Stan Lee, Gary Goddard, Shawn Ashmore, Tyler Mane, Daniel Magder, Jay Yoo, David Hayter

Nedaleká budoucnost. Po celé planetě se rodí děti s X-faktorem v genech, který jim dává zvláštní sílu - třeba ničivý laserový pohled nebo schopnost létat, či přesunovat předměty nebo ovládat počasí. Profesor X, Wolverine, Storm, Jean Grey, Rogue, Cyclops, Magneto, Toad, Mystique, Sabretooth jsou mutanti s mimořádnými schopnostmi. Ale pro lidi, kteří takovéto schopnosti nemají, je velice těžké mutanty akceptovat a neubránit se strachu. Nejcitelněji potřebu naučit mutanty, jak pracovat se svou zvláštní silou a mít nad ní kontrolu má profesor Charles Xavier - světově uznávaný telepat - mutant. Zřídí speciální školu a jeho záměrem je, aby se žáci chovali tak, aby se svět odnaučil strachu před nimi. Xavier přijímá dva nové žáky. Je to Logan - osamělý silák a Rogue, která může přijmout jakoukoliv sílu i paměť ze všeho, čeho se dotkne. Proti filosofii profesora Xaviera stojí senátor Kelly, který by mutanty nejradši zlikvidoval.



kód:
Format                          : AVI
Format/Info                      : Audio Video Interleave
File size                        : 691 MiB
Duration                        : 1h 40mn
Overall bit rate                : 966 Kbps
Writing application              : VirtualDubMod 1.4.13
Writing library                  : VirtualDub build 14328/release

Video
ID                              : 0
Format                          : MPEG-4 Visual
Format settings, BVOP            : No
Format settings, QPel            : No
Format settings, GMC            : No warppoints
Format settings, Matrix          : Default (H.263)
Codec ID                        : XVID
Codec ID/Hint                    : XviD
Duration                        : 1h 40mn
Bit rate                        : 804 Kbps
Width                            : 608 pixels
Height                          : 256 pixels
Display aspect ratio            : 2.40:1
Frame rate                      : 25.000 fps
Color space                      : YUV
Chroma subsampling              : 4:2:0
Bit depth                        : 8 bits
Scan type                        : Progressive
Compression mode                : Lossy
Bits/(Pixel*Frame)              : 0.207
Stream size                      : 575 MiB (83%)

Audio
ID                              : 1
Format                          : MPEG Audio
Format version                  : Version 1
Format profile                  : Layer 3
Mode                            : Joint stereo
Mode extension                  : MS Stereo
Codec ID                        : 55
Codec ID/Hint                    : MP3
Duration                        : 1h 40mn
Bit rate mode                    : Variable
Bit rate                        : 149 Kbps
Channel(s)                      : 2 channels
Sampling rate                    : 48.0 KHz
Compression mode                : Lossy
Stream size                      : 107 MiB (15%)
Alignment                        : Aligned on interleaves
Interleave, duration            : 24 ms (0.60 video frame)
Interleave, preload duration    : 479 ms


kód:
http://download.hellshare.sk/x-men-2-cz-avi/3743028

Návrat hore Goto down
Zobrazit informácie o autorovi http://warnerfilm.forumn.org
 
X-Men / X-Men (2000)
Zobraziť predchádzajúcu tému Zobraziť nasledujúcu tému Návrat hore 
Strana 1 z 1

Povolenie tohoto fóra:Nemôžete odpovedať na témy v tomto fóre.
Vsetko zadarmo :: .::Download filmy::. :: .::Filmy s ceskym a slovenskym dabingom::.-
Prejdi na: