Vsetko zadarmo

Vsetko zadarmo
 
DomovFAQHľadaťRegistráciaZoznam užívateľovUžívateľské skupinyPrihlásenie

Share | 
 

 Zkažená úča / Bad Teacher (2011) HD

Zobraziť predchádzajúcu tému Zobraziť nasledujúcu tému Goto down 
AutorSpráva
aismen
Mega Uploader
Mega Uploader


Počet príspevkov : 703
Registration date : 16.04.2008

OdoslaťPredmet: Zkažená úča / Bad Teacher (2011) HD   Ut október 04, 2011 8:09 pm

Mrcha učiteľka
Bad Teacher
Zkažená úča


Komedie
USA, 2011, 92 min



Režie:Jake Kasdan
Hudba:Michael Andrews
Hrají:Cameron Diaz, Lucy Punch, Jason Segel, Justin Timberlake, Phyllis Smith, John Michael Higgins, Molly Shannon, Eric Stonestreet, Kathryn Newton, Thomas Lennon

Elizabeth Halseyová (Cameron Diaz) je učitelka, která by z chování dostala přinejmenším dvojku. Je sprostá, zlá a chová se naprosto nevhodně. Pije, bere drogy a nemůže se dočkat, až si najde dobře situovaného muže, který se o ni postará a ona bude moci svou kariéru učitelky definitivně opustit. Když se s ní rozejde její snoubenec, vymyslí plán, jak získat jeho bohatého a pohledného náhradníka (Justin Timberlake) – o jehož přízeň soupeří se svou přehnaně aktivní kolegyní Amy (Lucy Punch) – ale zjišťuje, že je místo toho nucena bránit se snahám obhroublého učitele tělocviku (Jason Segel). Elizabethiny bizarní plány a jejich bláznivé následky šokují její studenty, spolupracovníky a dokonce i ji samotnou.


kód:
Format                          : AVI
Format/Info                      : Audio Video Interleave
Format profile                  : OpenDML
File size                        : 2.50 GiB
Duration                        : 1h 37mn
Overall bit rate                : 3 669 Kbps
Writing application              : VirtualDubMod 1.5.10.2 (build 2540/release)
Writing library                  : VirtualDubMod build 2540/release

Video
ID                              : 0
Format                          : MPEG-4 Visual
Format profile                  : Advanced Simple@L5
Format settings, BVOP            : 1
Format settings, QPel            : No
Format settings, GMC            : No warppoints
Format settings, Matrix          : Default (H.263)
Codec ID                        : XVID
Codec ID/Hint                    : XviD
Duration                        : 1h 37mn
Bit rate                        : 3 018 Kbps
Width                            : 1 280 pixels
Height                          : 688 pixels
Display aspect ratio            : 1.860
Frame rate                      : 23.976 fps
Color space                      : YUV
Chroma subsampling              : 4:2:0
Bit depth                        : 8 bits
Scan type                        : Progressive
Compression mode                : Lossy
Bits/(Pixel*Frame)              : 0.143
Stream size                      : 2.06 GiB (82%)
Writing library                  : XviD 1.2.1 (UTC 2008-12-04)

Audio
ID                              : 1
Format                          : AC-3
Format/Info                      : Audio Coding 3
Mode extension                  : CM (complete main)
Codec ID                        : 2000
Duration                        : 1h 37mn
Bit rate mode                    : Constant
Bit rate                        : 640 Kbps
Channel(s)                      : 6 channels
Channel positions                : Front: L C R, Side: L R, LFE
Sampling rate                    : 48.0 KHz
Bit depth                        : 16 bits
Compression mode                : Lossy
Stream size                      : 447 MiB (17%)
Alignment                        : Split accross interleaves
Interleave, duration            : 42 ms (1.00 video frame)
Interleave, preload duration    : 500 ms




kód:
http://download.hellshare.sk/zkazena-uca-2011-part1-rar/3703175
http://download.hellshare.sk/zkazena-uca-2011-part2-rar/3703183
http://download.hellshare.sk/zkazena-uca-2011-part3-rar/3703197
http://download.hellshare.sk/zkazena-uca-2011-part4-rar/3703207

Návrat hore Goto down
Zobrazit informácie o autorovi http://warnerfilm.forumn.org
 
Zkažená úča / Bad Teacher (2011) HD
Zobraziť predchádzajúcu tému Zobraziť nasledujúcu tému Návrat hore 
Strana 1 z 1

Povolenie tohoto fóra:Nemôžete odpovedať na témy v tomto fóre.
Vsetko zadarmo :: .::Download filmy::. :: .::Filmy s ceskym a slovenskym dabingom::.-
Prejdi na: