Vsetko zadarmo

Vsetko zadarmo
 
DomovFAQHľadaťRegistráciaZoznam užívateľovUžívateľské skupinyPrihlásenie

Share | 
 

 Gremlins 2 - Nová várka/Gremlins 2: The New Batch(1990)

Zobraziť predchádzajúcu tému Zobraziť nasledujúcu tému Goto down 
AutorSpráva
aismen
Mega Uploader
Mega Uploader


Počet príspevkov : 703
Registration date : 16.04.2008

OdoslaťPredmet: Gremlins 2 - Nová várka/Gremlins 2: The New Batch(1990)   Ut október 04, 2011 7:37 pm

Gremlins 2 - Nová várka
Gremlins 2: The New Batch
Gremlins 2: Nová generace


Komedie / Fantasy / Horor / Sci-Fi
USA, 1990, 106 min

CSFD

Režie:Joe Dante
Hudba:Jerry Goldsmith
Hrají:Zach Galligan, Phoebe Cates, John Glover, Robert Prosky, Robert Picardo, Christopher Lee, Dick Miller, Gedde Watanabe, Patrika Darbo, Sarah Lilly, Rick Ducommun, John Capodice, Paul Bartel, Kenneth Tobey, Julia Sweeney, Dean Norris, Joe Dante, John Astin, Henry Gibson, Hulk Hogan, Bubba Smith, Howie Mandel, Frank Welker, Kirk R. Thatcher, Kathleen Freeman, Isiah Whitlock Jr., Tony Randall, Raymond Cruz, Jerry Goldsmith

Pokračování úspěšné americké hororové komedie o nečekaně všežravém vánočním nadělení. Kdyby Zach Galligan v laboratoři neexperimentoval, nemuselo by se to v mrakodrapu magnáta Johnyho Glovera hemžit příšerkami, které jsou čím dál drzejší, darebnější, vynalézavější a žravější!

INFO:
kód:
Format                          : AVI
Format/Info                      : Audio Video Interleave
File size                        : 1.32 GiB
Duration                        : 1h 42mn
Overall bit rate                : 1 850 Kbps
Writing application              : VirtualDubMod 1.5.4.1 (build 2178/release)
Writing library                  : VirtualDubMod build 2178/release

Video
ID                              : 0
Format                          : MPEG-4 Visual
Format profile                  : Simple@L0
Format settings, BVOP            : No
Format settings, QPel            : No
Format settings, GMC            : No warppoints
Format settings, Matrix          : Default (H.263)
Codec ID                        : XVID
Codec ID/Hint                    : XviD
Duration                        : 1h 42mn
Bit rate                        : 1 619 Kbps
Width                            : 704 pixels
Height                          : 400 pixels
Display aspect ratio            : 16:9
Frame rate                      : 25.000 fps
Color space                      : YUV
Chroma subsampling              : 4:2:0
Bit depth                        : 8 bits
Scan type                        : Progressive
Compression mode                : Lossy
Bits/(Pixel*Frame)              : 0.230
Stream size                      : 1.15 GiB (88%)
Writing library                  : XviD 1.1.2 (UTC 2006-11-01)

Audio
ID                              : 1
Format                          : AC-3
Format/Info                      : Audio Coding 3
Mode extension                  : CM (complete main)
Codec ID                        : 2000
Duration                        : 1h 42mn
Bit rate mode                    : Constant
Bit rate                        : 224 Kbps
Channel(s)                      : 2 channels
Channel positions                : Front: L R
Sampling rate                    : 48.0 KHz
Bit depth                        : 16 bits
Compression mode                : Lossy
Stream size                      : 163 MiB (12%)
Alignment                        : Split accross interleaves
Interleave, duration            : 96 ms (2.40 video frames)
Interleave, preload duration    : 96 ms
Language                        : Czech

DOWNLOAD:

hellshare

kód:
http://download.hellshare.sk/gremlins-2-avi/3702766

PASS:bez hesla
Návrat hore Goto down
Zobrazit informácie o autorovi http://warnerfilm.forumn.org
 
Gremlins 2 - Nová várka/Gremlins 2: The New Batch(1990)
Zobraziť predchádzajúcu tému Zobraziť nasledujúcu tému Návrat hore 
Strana 1 z 1

Povolenie tohoto fóra:Nemôžete odpovedať na témy v tomto fóre.
Vsetko zadarmo :: .::Download filmy::. :: .::Filmy s ceskym a slovenskym dabingom::.-
Prejdi na: