Vsetko zadarmo

Vsetko zadarmo
 
DomovFAQHľadaťRegistráciaZoznam užívateľovUžívateľské skupinyPrihlásenie

Share | 
 

 X-Men: První třída / X-Men: First Class (2011)

Zobraziť predchádzajúcu tému Zobraziť nasledujúcu tému Goto down 
AutorSpráva
aismen
Mega Uploader
Mega Uploader


Počet príspevkov : 703
Registration date : 16.04.2008

OdoslaťPredmet: X-Men: První třída / X-Men: First Class (2011)   Ne október 02, 2011 2:20 pm

X-Men: Prvá trieda
X-Men: First Class
X-Men: První třída


Akční / Sci-Fi / Drama
USA, 2011, 132 min

CSFD

Režie:Matthew Vaughn
Hudba:Henry Jackman
Hrají:James McAvoy, Michael Fassbender, January Jones, Nicholas Hoult, Kevin Bacon, Jennifer Lawrence, Lucas Till, Edi Gathegi, Jason Flemyng, Morgan Lily, Zoë Kravitz, Rose Byrne, Caleb Landry Jones, Oliver Platt, Bill Milner, Laurence Belcher, Matt Craven, Álex González, Hugh Jackman, Rebecca Romijn, Corey Johnson, Glenn Morshower, James Remar, Ludger Pistor, Michael Ironside, Rade Serbedzija, Ray Wise, Olek Krupa, David Agranov, Annabelle Wallis, Brendan Fehr, Sasha Pieterse, Jason Beghe, Tony Curran, Randall Batinkoff, Carlos Besse Peres, Arthur Darbinyan


X-Men: První třída se dějově se vrací ještě před film X-Men Origins: Wolverine a odehrává se v polovině minulého století. V době, kdy mladý Charles Xavier (James McAvoy) a Erik Lensherr (Michael Fassbender) byli velmi blízcí přátelé a teprve odkrývali své jedinečné schopnosti. V době studené války, kdy společně s dalšími mutanty museli čelit největší hrozbě, jakou kdy zatím lidstvo poznalo. Proč se ale z nejlepších přátel stali nepřátelé na život a na smrt? Co předcházelo okamžiku, kdy se z Charlese stal Profesor X a z Erika Magneto? Válka mezi X-Meny a Bratrstvem začíná!

INFO:
kód:
Format                          : AVI
Format/Info                      : Audio Video Interleave
File size                        : 999 MiB
Duration                        : 2h 3mn
Overall bit rate                : 1 135 Kbps
Writing application              : VirtualDubMod 1.5.10.2 (build 2540/release)
Writing library                  : VirtualDubMod build 2540/release

Video
ID                              : 0
Format                          : MPEG-4 Visual
Format profile                  : Advanced Simple@L5
Format settings, BVOP            : 2
Format settings, QPel            : No
Format settings, GMC            : No warppoints
Format settings, Matrix          : Default (H.263)
Muxing mode                      : Packed bitstream
Codec ID                        : XVID
Codec ID/Hint                    : XviD
Duration                        : 2h 3mn
Bit rate                        : 997 Kbps
Width                            : 704 pixels
Height                          : 288 pixels
Display aspect ratio            : 2.40:1
Frame rate                      : 25.000 fps
Color space                      : YUV
Chroma subsampling              : 4:2:0
Bit depth                        : 8 bits
Scan type                        : Progressive
Compression mode                : Lossy
Bits/(Pixel*Frame)              : 0.197
Stream size                      : 877 MiB (88%)
Writing library                  : XviD 1.2.1 (UTC 2008-12-04)

Audio
ID                              : 1
Format                          : MPEG Audio
Format version                  : Version 1
Format profile                  : Layer 3
Mode                            : Joint stereo
Mode extension                  : MS Stereo
Codec ID                        : 55
Codec ID/Hint                    : MP3
Duration                        : 2h 3mn
Bit rate mode                    : Constant
Bit rate                        : 128 Kbps
Channel(s)                      : 2 channels
Sampling rate                    : 48.0 KHz
Compression mode                : Lossy
Stream size                      : 113 MiB (11%)
Alignment                        : Aligned on interleaves
Interleave, duration            : 40 ms (1.00 video frame)
Interleave, preload duration    : 504 ms

DOWNLOAD:

hellshare

kód:
http://download.hellshare.sk/x-men-prvni-trida-avi/3709445

PASS:bez hesla
Návrat hore Goto down
Zobrazit informácie o autorovi http://warnerfilm.forumn.org
aismen
Mega Uploader
Mega Uploader


Počet príspevkov : 703
Registration date : 16.04.2008

OdoslaťPredmet: Re: X-Men: První třída / X-Men: First Class (2011)   Pi október 07, 2011 7:53 pm

X-Men: Prvá trieda
X-Men: First Class
X-Men: První třída


Akční / Sci-Fi / Drama
USA, 2011, 132 min



kód:
http://download.hellshare.sk/x-men-i-cz-avi/3743267


Návrat hore Goto down
Zobrazit informácie o autorovi http://warnerfilm.forumn.org
 
X-Men: První třída / X-Men: First Class (2011)
Zobraziť predchádzajúcu tému Zobraziť nasledujúcu tému Návrat hore 
Strana 1 z 1

Povolenie tohoto fóra:Nemôžete odpovedať na témy v tomto fóre.
Vsetko zadarmo :: .::Download filmy::. :: .::Filmy s ceskym a slovenskym dabingom::.-
Prejdi na: