Vsetko zadarmo

Vsetko zadarmo
 
DomovFAQHľadaťRegistráciaZoznam užívateľovUžívateľské skupinyPrihlásenie

Share | 
 

 Gremlins (1984)

Zobraziť predchádzajúcu tému Zobraziť nasledujúcu tému Goto down 
AutorSpráva
aismen
Mega Uploader
Mega Uploader


Počet príspevkov : 703
Registration date : 16.04.2008

OdoslaťPredmet: Gremlins (1984)   Pi september 30, 2011 8:10 pm

Gremlins
Gremlins
Gremlins


Komedie / Fantasy / Horor / Akční
USA, 1984, 106 min

CSFD

Režie:Joe Dante
Hudba:Jerry Goldsmith
Hrají:Zach Galligan, Phoebe Cates, Hoyt Axton, Polly Holliday, Judge Reinhold, Dick Miller, Corey Feldman, Scott Brady, Chuck Jones, Nicky Katt, Jonathan Banks, Frank Welker, Howie Mandel, Michael Winslow, Peter Cullen, Kenneth Tobey, Steven Spielberg, Glynn Turman, Jerry Goldsmith

Je roztomilý a můžete ho mít doma. Ale dbejte následujících varování: Nesmíte ho namočit. Chraňte ho před přímým světlem. A co je nejdůležitější, na co nesmíte nikdy zapomenout: i kdyby plakal sebevíc, i kdyby žadonil v žádném případě ho nekrmte po půlnoci. S těmito třemi instrukcemi převzal Billy Peltzer svého nového přítulného mazlíčka. Dostal však mnohem víc, než koupil

INFO:
kód:
Format                          : AVI
Format/Info                      : Audio Video Interleave
File size                        : 999 MiB
Duration                        : 1h 41mn
Overall bit rate                : 1 371 Kbps
Writing application              : VirtualDubMod 1.5.4.1 (build 2178/release)
Writing library                  : VirtualDubMod build 2178/release

Video
ID                              : 0
Format                          : MPEG-4 Visual
Format profile                  : Advanced Simple@L5
Format settings, BVOP            : 1
Format settings, QPel            : No
Format settings, GMC            : No warppoints
Format settings, Matrix          : Custom
Codec ID                        : XVID
Codec ID/Hint                    : XviD
Duration                        : 1h 41mn
Bit rate                        : 1 044 Kbps
Width                            : 608 pixels
Height                          : 352 pixels
Display aspect ratio            : 16:9
Frame rate                      : 25.000 fps
Color space                      : YUV
Chroma subsampling              : 4:2:0
Bit depth                        : 8 bits
Scan type                        : Progressive
Compression mode                : Lossy
Bits/(Pixel*Frame)              : 0.195
Stream size                      : 761 MiB (76%)
Writing library                  : XviD 1.2.0.dev47 (UTC 2006-11-01)

Audio
ID                              : 1
Format                          : AC-3
Format/Info                      : Audio Coding 3
Mode extension                  : CM (complete main)
Codec ID                        : 2000
Duration                        : 1h 41mn
Bit rate mode                    : Constant
Bit rate                        : 320 Kbps
Channel(s)                      : 2 channels
Channel positions                : Front: L R
Sampling rate                    : 48.0 KHz
Bit depth                        : 16 bits
Compression mode                : Lossy
Stream size                      : 233 MiB (23%)
Alignment                        : Split accross interleaves
Interleave, duration            : 96 ms (2.40 video frames)
Interleave, preload duration    : 96 ms
Language                        : Czech

[b]DOWNLOAD:

hellshare

kód:
http://download.hellshare.sk/gremlins-cz-avi/3695385

upnito.sk
kód:
http://www.upnito.sk/subor/350ee3248b635c265b0a143167e10bb5.html

PASS:bez hesla
Návrat hore Goto down
Zobrazit informácie o autorovi http://warnerfilm.forumn.org
 
Gremlins (1984)
Zobraziť predchádzajúcu tému Zobraziť nasledujúcu tému Návrat hore 
Strana 1 z 1

Povolenie tohoto fóra:Nemôžete odpovedať na témy v tomto fóre.
Vsetko zadarmo :: .::Download filmy::. :: .::Filmy s ceskym a slovenskym dabingom::.-
Prejdi na: