Vsetko zadarmo

Vsetko zadarmo
 
DomovFAQHľadaťRegistráciaZoznam užívateľovUžívateľské skupinyPrihlásenie

Share | 
 

 Matrix 1,2,3

Zobraziť predchádzajúcu tému Zobraziť nasledujúcu tému Goto down 
AutorSpráva
aismen
Mega Uploader
Mega Uploader


Počet príspevkov : 703
Registration date : 16.04.2008

OdoslaťPredmet: Matrix 1,2,3   Pi september 30, 2011 6:44 pm

Matrix
Matrix, The
Matrix




Sci-Fi / Akční / Thriller
USA, 1999, 131 min

CSFD

Režie:Lana Wachowski, Andy Wachowski
Hudba:Don Davis
Hrají:Keanu Reeves, Laurence Fishburne, Carrie-Anne Moss, Hugo Weaving, Gloria Foster, Joe Pantoliano, Belinda McClory, Robert Taylor, Anthony Ray Parker, Ada Nicodemou

Život mladého počítačového experta s perspektívnou budúcnosťou, a zároveň obávaného hackera s prezývkou Neo, Thomasa Andersona, sa radikálne zmení vo chvíli, keď ho po niekoľných nočných morách kontaktuje záhadná Trinity. Ponúkne mu odpovede na otázky, ktoré ho už dlhší čas sužujú, no hlavne odpoveď, ktorá ho zaujíma asi najviac od chvíle, keď dostal záhadný e-mail: Čo je to Matrix? Rozhodne sa uveriť jej, a po poslednej možnosti voľby, ktorú mu ponúkne černoch Morpheus, sa prebúdza v skutočnom svete. S hrôzou zisťuje, že život, ktorý doteraz žil, bol len ilúzia. Že zďaleka nie je rok 1999, a že Matrix je obrovský software, na ktorý sú všetci ľudia napojený, a žijú si v ňom svoj vlastný "život" tak, ako doteraz žil aj on. V skutočnosti sú umiestnení v obrovskej elektrárni, ktorá týmto spôsobom prináša úžitok novodobým pánom sveta - strojom. A zisťuje aj to, že on je jediný, kto môže ľudstvo spod nadvlády strojov zachrániť. On je Vyvolený. Teda aspoň podľa proroctva. A tak nemá na výber - musí sa pridať k skupine rebelov, ktorý tejto vojne zasvätili celé svoje životy. Boj o budúcnosť sa môže začať...

INFO:
kód:
Format                          : AVI
Format/Info                      : Audio Video Interleave
File size                        : 700 MiB
Duration                        : 2h 10mn
Overall bit rate                : 748 Kbps
Writing application              : VirtualDubMod 1.5.4.1 (build 2178/release)
Writing library                  : VirtualDubMod build 2178/release

Video
ID                              : 0
Format                          : MPEG-4 Visual
Format profile                  : Advanced Simple@L5
Format settings, BVOP            : 1
Format settings, QPel            : No
Format settings, GMC            : No warppoints
Format settings, Matrix          : Custom
Codec ID                        : XVID
Codec ID/Hint                    : XviD
Duration                        : 2h 10mn
Bit rate                        : 617 Kbps
Width                            : 608 pixels
Height                          : 256 pixels
Display aspect ratio            : 2.40:1
Frame rate                      : 25.000 fps
Color space                      : YUV
Chroma subsampling              : 4:2:0
Bit depth                        : 8 bits
Scan type                        : Progressive
Compression mode                : Lossy
Bits/(Pixel*Frame)              : 0.159
Stream size                      : 577 MiB (82%)
Writing library                  : XviD 1.2.0.dev47 (UTC 2006-11-01)

Audio
ID                              : 1
Format                          : MPEG Audio
Format version                  : Version 1
Format profile                  : Layer 3
Mode                            : Joint stereo
Mode extension                  : MS Stereo
Codec ID                        : 55
Codec ID/Hint                    : MP3
Duration                        : 2h 10mn
Bit rate mode                    : Variable
Bit rate                        : 118 Kbps
Channel(s)                      : 2 channels
Sampling rate                    : 48.0 KHz
Compression mode                : Lossy
Stream size                      : 111 MiB (16%)
Alignment                        : Aligned on interleaves
Interleave, duration            : 24 ms (0.60 video frame)
Interleave, preload duration    : 423 ms
Language                        : Czech

[b]DOWNLOAD:

hellshare

kód:
http://download.hellshare.sk/matrix-cz-avi/3694394

PASS:bez hesla
Návrat hore Goto down
Zobrazit informácie o autorovi http://warnerfilm.forumn.org
aismen
Mega Uploader
Mega Uploader


Počet príspevkov : 703
Registration date : 16.04.2008

OdoslaťPredmet: Re: Matrix 1,2,3   Pi september 30, 2011 7:00 pm

Matrix Reloaded
Matrix Reloaded, The
Matrix Reloaded




Sci-Fi / Akční / Thriller
USA, 2003, 138 min

CSFD

Režie:Lana Wachowski, Andy Wachowski
Hudba:Don Davis
Hrají:Keanu Reeves, Laurence Fishburne, Carrie-Anne Moss, Hugo Weaving, Steve Bastoni, Jada Pinkett Smith, Monica Bellucci, Daniel Bernhardt, Ian Bliss, Collin Chou, Randall Duk Kim, Essie Davis, Nona Gaye, Nathaniel Lees, Harry Lennix, Matt McColm, Tory Mussett, Robyn Nevin, Gloria Foster, David Roberts, Leigh Whannell, Lambert Wilson, Anthony Brandon Wong, Anthony Zerbe, Harold Perrineau, Gina Torres, Nash Edgerton, Roy Jones Jr., Helmut Bakaitis, Stoney Burke, David Franklin, Genevieve O'Reilly

Pokračovanie kultovej sci-fi, ktorá redefinovala žáner akčného filmu a získala 4 Oscarov, nás opäť zavedú do temného sveta budúcnosti, ovládaného strojmi. Ľudstvo naďalej trpí v otroctve virtuálnej reality, z ktorého ho môže oslobodiť len veštbou predpovedaný Vyvolený. Novodobý spasiteľ Neo (Keanu Reeves) musí v druhej časti čeliť novým protivníkom - sú nimi Dvojčatá, nemilosrdní zabijaci, v skutočnosti smrtiace vírusy, ktoré sa pohybujú Matrixom a dokážu ho meniť a podriaďovať svojej vôli rovnako ako Neo. Okrem nich ide Vyvolenému po krku aj agent Smith, ktorý sa oddelil od Matrixu a teraz Nea prenasleduje na vlastnú päsť. Navyše ako vírus dokáže naklonovať sám seba, takže Neo bude v jednej z vrcholných scén filmu čeliť takmer stovke identických agentov Smithov. Medzitým sa Trinity a Morpheus snažia zachrániť tajomného Kľúčnika, ktorý dokáže otvoriť každé dvere v Matrixe a je dôležitou zbraňou ľudí v boji proti strojom. I medzi robotmi prebieha boj o nadvládu nad virtuálnou realitou, a zároveň sa snažia objaviť posledné ľudské mesto Zion, ukryté v hlbinách Zeme. Všetky udalosti vedú k veľkej vojne ľudí proti strojom, ktorá vypukne v tretej časti.

INFO:
kód:
Format                          : AVI
Format/Info                      : Audio Video Interleave
File size                        : 1.45 GiB
Duration                        : 2h 12mn
Overall bit rate                : 1 569 Kbps
Writing application              : VirtualDubMod 1.5.10.2 (build 2540/release)
Writing library                  : VirtualDubMod build 2540/release

Video
ID                              : 0
Format                          : MPEG-4 Visual
Format profile                  : Advanced Simple@L5
Format settings, BVOP            : 2
Format settings, QPel            : No
Format settings, GMC            : No warppoints
Format settings, Matrix          : Default (H.263)
Muxing mode                      : Packed bitstream
Codec ID                        : XVID
Codec ID/Hint                    : XviD
Duration                        : 2h 12mn
Bit rate                        : 1 435 Kbps
Width                            : 832 pixels
Height                          : 336 pixels
Display aspect ratio            : 2.476
Frame rate                      : 25.000 fps
Color space                      : YUV
Chroma subsampling              : 4:2:0
Bit depth                        : 8 bits
Scan type                        : Progressive
Compression mode                : Lossy
Bits/(Pixel*Frame)              : 0.205
Stream size                      : 1.33 GiB (91%)
Writing library                  : XviD 1.0.3 (UTC 2004-12-20)

Audio
ID                              : 1
Format                          : MPEG Audio
Format version                  : Version 1
Format profile                  : Layer 3
Mode                            : Joint stereo
Mode extension                  : MS Stereo
Codec ID                        : 55
Codec ID/Hint                    : MP3
Duration                        : 2h 12mn
Bit rate mode                    : Constant
Bit rate                        : 128 Kbps
Channel(s)                      : 2 channels
Sampling rate                    : 48.0 KHz
Compression mode                : Lossy
Delay relative to video          : 168ms
Stream size                      : 121 MiB (8%)
Alignment                        : Aligned on interleaves
Interleave, duration            : 400 ms (10.00 video frames)
Interleave, preload duration    : 504 ms

[b]DOWNLOAD:

hellshare

kód:
http://download.hellshare.sk/matrix-2-reloaded-2003-cz-avi/3694404

PASS:bez hesla
Návrat hore Goto down
Zobrazit informácie o autorovi http://warnerfilm.forumn.org
aismen
Mega Uploader
Mega Uploader


Počet príspevkov : 703
Registration date : 16.04.2008

OdoslaťPredmet: Re: Matrix 1,2,3   Pi september 30, 2011 7:02 pm

Matrix Revolutions
Matrix Revolutions, The
Matrix Revolutions




Sci-Fi / Akční / Thriller
USA / Austrálie, 2003, 129 min

CSFD

Režie:Lana Wachowski, Andy Wachowski
Hudba:Don Davis
Hrají:Keanu Reeves, Laurence Fishburne, Carrie-Anne Moss, Hugo Weaving, Ian Bliss, Collin Chou, Lachy Hulme, Nathaniel Lees, Harry Lennix, Robyn Nevin, David Roberts, Lambert Wilson, Bruce Spence, Jada Pinkett Smith, Monica Bellucci, Anthony Brandon Wong, Nona Gaye, Anthony Zerbe, Harold Perrineau, Kate Beahan, Gina Torres, Helmut Bakaitis, David Bowers, Genevieve O'Reilly

V posledním pokračování trilogie o Matrixu se dostane Neo (Keanu Reeves) společně s Trinity (Carrie-Anne Moss) a Morpheem (Laurence Fishburne) do finálové bitvy proti počítačovým vládcům univerza. Zion je v podstatě dobytou baštou lidského odporu, vzbouřenci přicházejí o jednu loď za druhou a zrada číhá i v jejich řadách. Neo má navíc problém se svojí jedinečností. Není to však jenom manipulace? A jak rozlišit lidskost od pouhé iluze? Začíná akčnější a napínavější příběh, než oba dva předešlé ...


INFO:
kód:
Format                          : AVI
Format/Info                      : Audio Video Interleave
File size                        : 1.45 GiB
Duration                        : 2h 3mn
Overall bit rate                : 1 679 Kbps
Writing application              : VirtualDubMod 1.5.10.2 (build 2540/release)
Writing library                  : VirtualDubMod build 2540/release

Video
ID                              : 0
Format                          : MPEG-4 Visual
Format profile                  : Advanced Simple@L5
Format settings, BVOP            : 2
Format settings, QPel            : No
Format settings, GMC            : No warppoints
Format settings, Matrix          : Default (H.263)
Muxing mode                      : Packed bitstream
Codec ID                        : XVID
Codec ID/Hint                    : XviD
Duration                        : 2h 3mn
Bit rate                        : 1 545 Kbps
Width                            : 736 pixels
Height                          : 288 pixels
Display aspect ratio            : 2.556
Frame rate                      : 25.000 fps
Color space                      : YUV
Chroma subsampling              : 4:2:0
Bit depth                        : 8 bits
Scan type                        : Progressive
Compression mode                : Lossy
Bits/(Pixel*Frame)              : 0.292
Stream size                      : 1.34 GiB (92%)
Writing library                  : XviD 1.0.3 (UTC 2004-12-20)

Audio
ID                              : 1
Format                          : MPEG Audio
Format version                  : Version 1
Format profile                  : Layer 3
Mode                            : Joint stereo
Mode extension                  : MS Stereo
Codec ID                        : 55
Codec ID/Hint                    : MP3
Duration                        : 2h 3mn
Bit rate mode                    : Constant
Bit rate                        : 128 Kbps
Channel(s)                      : 2 channels
Sampling rate                    : 48.0 KHz
Compression mode                : Lossy
Stream size                      : 113 MiB (8%)
Alignment                        : Aligned on interleaves
Interleave, duration            : 400 ms (10.00 video frames)
Interleave, preload duration    : 504 ms

[b]DOWNLOAD:

hellshare

kód:
http://download.hellshare.sk/matrix-revolutions-cz-avi/3694425

PASS:bez hesla
Návrat hore Goto down
Zobrazit informácie o autorovi http://warnerfilm.forumn.org
Sponsored content




OdoslaťPredmet: Re: Matrix 1,2,3   Today at 10:01 pm

Návrat hore Goto down
 
Matrix 1,2,3
Zobraziť predchádzajúcu tému Zobraziť nasledujúcu tému Návrat hore 
Strana 1 z 1

Povolenie tohoto fóra:Nemôžete odpovedať na témy v tomto fóre.
Vsetko zadarmo :: .::Download filmy::. :: .::Filmy s ceskym a slovenskym dabingom::.-
Prejdi na: