Vsetko zadarmo

Vsetko zadarmo
 
DomovFAQHľadaťRegistráciaZoznam užívateľovUžívateľské skupinyPrihlásenie

Share | 
 

 Zkažená úča / Bad Teacher (2011)

Zobraziť predchádzajúcu tému Zobraziť nasledujúcu tému Goto down 
AutorSpráva
aismen
Mega Uploader
Mega Uploader


Počet príspevkov : 703
Registration date : 16.04.2008

OdoslaťPredmet: Zkažená úča / Bad Teacher (2011)   Pi september 30, 2011 6:51 am

Mrcha učiteľka
Bad Teacher
Zkažená úča


Komedie
USA, 2011, 92 min

CSFD

Režie:Jake Kasdan
Hudba:Michael Andrews
Hrají:Cameron Diaz, Lucy Punch, Jason Segel, Justin Timberlake, Phyllis Smith, John Michael Higgins, Molly Shannon, Eric Stonestreet, Kathryn Newton, Thomas Lennon

Elizabeth Halseyová (Cameron Diaz) je učitelka, která by z chování dostala přinejmenším dvojku. Je sprostá, zlá a chová se naprosto nevhodně. Pije, bere drogy a nemůže se dočkat, až si najde dobře situovaného muže, který se o ni postará a ona bude moci svou kariéru učitelky definitivně opustit. Když se s ní rozejde její snoubenec, vymyslí plán, jak získat jeho bohatého a pohledného náhradníka (Justin Timberlake) – o jehož přízeň soupeří se svou přehnaně aktivní kolegyní Amy (Lucy Punch) – ale zjišťuje, že je místo toho nucena bránit se snahám obhroublého učitele tělocviku (Jason Segel). Elizabethiny bizarní plány a jejich bláznivé následky šokují její studenty, spolupracovníky a dokonce i ji samotnou.

INFO:
kód:
Format                          : AVI
Format/Info                      : Audio Video Interleave
File size                        : 1.03 GiB
Duration                        : 1h 37mn
Overall bit rate                : 1 515 Kbps

Video
ID                              : 0
Format                          : MPEG-4 Visual
Format profile                  : Advanced Simple@L5
Format settings, BVOP            : 2
Format settings, QPel            : No
Format settings, GMC            : No warppoints
Format settings, Matrix          : Default (H.263)
Codec ID                        : XVID
Codec ID/Hint                    : XviD
Duration                        : 1h 37mn
Bit rate                        : 865 Kbps
Width                            : 640 pixels
Height                          : 352 pixels
Display aspect ratio            : 16:9
Frame rate                      : 23.976 fps
Color space                      : YUV
Chroma subsampling              : 4:2:0
Bit depth                        : 8 bits
Scan type                        : Progressive
Compression mode                : Lossy
Bits/(Pixel*Frame)              : 0.160
Stream size                      : 604 MiB (57%)
Writing library                  : XviD 1.2.1 (UTC 2008-12-04)

Audio
ID                              : 1
Format                          : AC-3
Format/Info                      : Audio Coding 3
Mode extension                  : CM (complete main)
Codec ID                        : 2000
Duration                        : 1h 37mn
Bit rate mode                    : Constant
Bit rate                        : 640 Kbps
Channel(s)                      : 6 channels
Channel positions                : Front: L C R, Side: L R, LFE
Sampling rate                    : 48.0 KHz
Bit depth                        : 16 bits
Compression mode                : Lossy
Stream size                      : 447 MiB (42%)
Alignment                        : Aligned on interleaves
Interleave, duration            : 42 ms (1.00 video frame)

[b]DOWNLOAD:

hellshare

kód:
http://download.hellshare.sk/mrcha-ucitelka-2011-avi/3691172

PASS:no
Návrat hore Goto down
Zobrazit informácie o autorovi http://warnerfilm.forumn.org
 
Zkažená úča / Bad Teacher (2011)
Zobraziť predchádzajúcu tému Zobraziť nasledujúcu tému Návrat hore 
Strana 1 z 1

Povolenie tohoto fóra:Nemôžete odpovedať na témy v tomto fóre.
Vsetko zadarmo :: .::Download filmy::. :: .::Filmy s ceskym a slovenskym dabingom::.-
Prejdi na: