Vsetko zadarmo

Vsetko zadarmo
 
DomovFAQHľadaťRegistráciaZoznam užívateľovUžívateľské skupinyPrihlásenie

Share | 
 

 Herkules v New Yorku/Hercules in New York (1969)

Zobraziť predchádzajúcu tému Zobraziť nasledujúcu tému Goto down 
AutorSpráva
aismen
Mega Uploader
Mega Uploader


Počet príspevkov : 703
Registration date : 16.04.2008

OdoslaťPredmet: Herkules v New Yorku/Hercules in New York (1969)   Št september 29, 2011 7:00 pm

Hercules in New York
Herkules v New Yorku




Akční / Komedie / Fantasy
USA, 1969, 75 min

CSFD

Režie:Arthur Allan Seidelman
Hrají:Arnold Schwarzenegger, Arnold Stang, James Karen, Lane Carroll

Diův syn Herkules, přebývající na hoře Olymp se tu začíná nudit. Rozhodne se proto navštívit svět lidí a vypraví se do New Yorku 20. století. Díky svému zjevu, síle a vystupování se stává terčem pozornosti a prožívá různá dobrodružství. Rozhněvá tím některé bohy a ti ho zbaví jeho síly a nesmrtelnosti. Herkules se ale dokáže obejít i bez těchto schopností... Americká dobrodružná fantasy komedie z roku 1969 se zapsala do filmových dějin především jako herecký debut v té době širokou veřejností nepříliš známého rakouského kulturisty jménem Arnold Schwarzenegger.

INFO:
kód:
Format                          : AVI
Format/Info                      : Audio Video Interleave
File size                        : 1.37 GiB
Duration                        : 1h 28mn
Overall bit rate                : 2 221 Kbps
Writing application              : VirtualDubMod 1.5.10.2 (build 2540/release)
Writing library                  : VirtualDubMod build 2540/release

Video
ID                              : 0
Format                          : MPEG-4 Visual
Format profile                  : Advanced Simple@L5
Format settings, BVOP            : 2
Format settings, QPel            : No
Format settings, GMC            : No warppoints
Format settings, Matrix          : Default (MPEG)
Muxing mode                      : Packed bitstream
Codec ID                        : XVID
Codec ID/Hint                    : XviD
Duration                        : 1h 28mn
Bit rate                        : 1 987 Kbps
Width                            : 640 pixels
Height                          : 480 pixels
Display aspect ratio            : 4:3
Frame rate                      : 25.000 fps
Color space                      : YUV
Chroma subsampling              : 4:2:0
Bit depth                        : 8 bits
Scan type                        : Progressive
Compression mode                : Lossy
Bits/(Pixel*Frame)              : 0.259
Stream size                      : 1.22 GiB (89%)
Writing library                  : XviD 1.2.0.dev47 (UTC 2006-11-01)

Audio
ID                              : 1
Format                          : AC-3
Format/Info                      : Audio Coding 3
Mode extension                  : CM (complete main)
Codec ID                        : 2000
Duration                        : 1h 28mn
Bit rate mode                    : Constant
Bit rate                        : 224 Kbps
Channel(s)                      : 2 channels
Channel positions                : Front: L R
Sampling rate                    : 48.0 KHz
Bit depth                        : 16 bits
Compression mode                : Lossy
Stream size                      : 141 MiB (10%)
Alignment                        : Split accross interleaves
Interleave, duration            : 40 ms (1.00 video frame)
Interleave, preload duration    : 500 ms

DOWNLOAD:

hellshare

kód:
http://download.hellshare.sk/1969-herkules-v-new-yorku-cz-avi/3687668

PASS:no
Návrat hore Goto down
Zobrazit informácie o autorovi http://warnerfilm.forumn.org
 
Herkules v New Yorku/Hercules in New York (1969)
Zobraziť predchádzajúcu tému Zobraziť nasledujúcu tému Návrat hore 
Strana 1 z 1

Povolenie tohoto fóra:Nemôžete odpovedať na témy v tomto fóre.
Vsetko zadarmo :: .::Download filmy::. :: .::Filmy s ceskym a slovenskym dabingom::.-
Prejdi na: