Vsetko zadarmo

Vsetko zadarmo
 
DomovFAQHľadaťRegistráciaZoznam užívateľovUžívateľské skupinyPrihlásenie

Share | 
 

  Smrtelné zlo 2 / Evil Dead II (1987)

Zobraziť predchádzajúcu tému Zobraziť nasledujúcu tému Goto down 
AutorSpráva
aismen
Mega Uploader
Mega Uploader


Počet príspevkov : 703
Registration date : 16.04.2008

OdoslaťPredmet: Smrtelné zlo 2 / Evil Dead II (1987)   St september 28, 2011 7:46 am

Smrteľné zlo 2
Evil Dead II
Smrtelné zlo 2


Horor / Komedie / Drama
USA, 1987, 85 min

CSFD

Režie:Sam Raimi
Hudba:Joseph LoDuca
Hrají:Bruce Campbell, Ted Raimi, Josh Becker, Scott Spiegel, Sam Raimi


Ash se svou přítelkyní přijíždí na chatu, která stojí opuštěná v lese. Tam si pustí pásku, na které je nahrán úvodní text Necronomicu, pradávné Knihy mrtvých. Tím však probudí okolní démony, které si vezmou jeho přítelkyni a jemu opanují pravou ruku. Brzy na chatu přijíždí skupinka dalších lidí, kteří však najdou jen krev, rozbitý dům a Ashe, který mezitím... Probuzené zlo je třeba znovu "uložit ke spánku". Za pomoci jakýchkoliv prostředků.


INFO:
kód:
Format                          : AVI
Format/Info                      : Audio Video Interleave
File size                        : 700 MiB
Duration                        : 1h 20mn
Overall bit rate                : 1 213 Kbps
Writing application              : VirtualDubMod 1.5.10.2 (build 2540/release)
Writing library                  : VirtualDubMod build 2540/release

Video
ID                              : 0
Format                          : MPEG-4 Visual
Format profile                  : Advanced Simple@L5
Format settings, BVOP            : 2
Format settings, QPel            : No
Format settings, GMC            : No warppoints
Format settings, Matrix          : Default (H.263)
Muxing mode                      : Packed bitstream
Codec ID                        : XVID
Codec ID/Hint                    : XviD
Duration                        : 1h 20mn
Bit rate                        : 1 075 Kbps
Width                            : 640 pixels
Height                          : 336 pixels
Display aspect ratio            : 1.905
Frame rate                      : 25.000 fps
Color space                      : YUV
Chroma subsampling              : 4:2:0
Bit depth                        : 8 bits
Scan type                        : Progressive
Compression mode                : Lossy
Bits/(Pixel*Frame)              : 0.200
Stream size                      : 621 MiB (89%)
Writing library                  : XviD 1.2.1 (UTC 2008-12-04)

Audio
ID                              : 1
Format                          : MPEG Audio
Format version                  : Version 1
Format profile                  : Layer 3
Mode                            : Joint stereo
Mode extension                  : MS Stereo
Codec ID                        : 55
Codec ID/Hint                    : MP3
Duration                        : 1h 20mn
Bit rate mode                    : Constant
Bit rate                        : 128 Kbps
Channel(s)                      : 2 channels
Sampling rate                    : 48.0 KHz
Compression mode                : Lossy
Stream size                      : 73.9 MiB (11%)
Alignment                        : Aligned on interleaves
Interleave, duration            : 40 ms (1.00 video frame)
Interleave, preload duration    : 504 ms
Writing library                  : LAME3.90.3ŞŞŞŞŞŞŞŞŞŞ

DOWNLOAD:

hellshare

kód:
http://download.hellshare.sk/smrtelne-zlo-2-avi/3678730

upnito.sk

kód:
http://www.upnito.sk/subor/5b4d90e38caa3e8d46505e46f4fafc40.html

PASS:no
Návrat hore Goto down
Zobrazit informácie o autorovi http://warnerfilm.forumn.org
 
Smrtelné zlo 2 / Evil Dead II (1987)
Zobraziť predchádzajúcu tému Zobraziť nasledujúcu tému Návrat hore 
Strana 1 z 1

Povolenie tohoto fóra:Nemôžete odpovedať na témy v tomto fóre.
Vsetko zadarmo :: .::Download filmy::. :: .::Filmy s ceskym a slovenskym dabingom::.-
Prejdi na: