Vsetko zadarmo

Vsetko zadarmo
 
DomovFAQHľadaťRegistráciaZoznam užívateľovUžívateľské skupinyPrihlásenie

Share | 
 

 Vreskot/Scream(1996)

Zobraziť predchádzajúcu tému Zobraziť nasledujúcu tému Goto down 
AutorSpráva
aismen
Mega Uploader
Mega Uploader


Počet príspevkov : 703
Registration date : 16.04.2008

OdoslaťPredmet: Vreskot/Scream(1996)   Ut september 27, 2011 6:52 pm

Vreskot
Scream
Vřískot




Horor / Mysteriózní / Thriller / Krimi
USA, 1996, 111 min

Režie:Wes Craven

Hudba:Marco Beltrami

Hrají:Neve Campbell, Courteney Cox, David Arquette, Skeet Ulrich, Rose McGowan, Matthew Lillard, Jamie Kennedy, Drew Barrymore, W. Earl Brown, Kevin Patrick Walls, Liev Schreiber, Linda Blair, Henry Winkler, Wes Craven, Lawrence Hecht


Poklidné městečko v Kalifornii by prožilo další líný a ospalý den, ovšem
studentka Casey Beckerová se svým spoluobčanům poněkud nedobrovolně
postará o děsivé rozptýlení. Stává se totiž první obětí vraždícího
maniaka, která byla nejdříve přinucena hrát s ním po telefonu šílenou
hru, díky které přišel o život její přítel a posléze i ona sama. Na řadě
je teď další středoškolačka Sidney Prescottová. Její matka byla před
rokem zavražděna podobně jednajícím šílencem, a přestože Sidney svědčila
proti údajnému vrahovi své matky, televizní reportérka Gale Wheatersová
je přesvědčena, že jde o stejného zabijáka. Je tedy muž, který čeká v
cele smrti na vykonání rozsudku nevinen? Podaří se nakonec zjistit
totožnost vraha - který vraždí po vzoru scén z oblíbených hororů -
dříve, nežli zamorduje Sidney? Na tyto otázky vám už dá odpověď pouze
snímek sám...


kód:
Format                          : AVI
Format/Info                      : Audio Video Interleave
File size                        : 687 MiB
Duration                        : 1h 46mn
Overall bit rate                : 901 Kbps
Writing application              : VirtualDubMod 1.5.4.1 (build 2066/release)
Writing library                  : VirtualDubMod build 2066/release

ID                              : 0
Format                          : MPEG-4 Visual
Format settings, BVOP            : 1
Format settings, QPel            : No
Format settings, GMC            : No warppoints
Format settings, Matrix          : Default (H.263)
Muxing mode                      : Packed bitstream
Codec ID                        : DX50
Codec ID/Hint                    : DivX 5
Duration                        : 1h 46mn
Bit rate                        : 779 Kbps
Width                            : 720 pixels
Height                          : 380 pixels
Display aspect ratio            : 1.895
Frame rate                      : 25.000 fps
Color space                      : YUV
Chroma subsampling              : 4:2:0
Bit depth                        : 8 bits
Scan type                        : Progressive
Compression mode                : Lossy
Bits/(Pixel*Frame)              : 0.114
Stream size                      : 594 MiB (86%)
Writing library                  : DivX 6.2.5 (UTC 2006-06-16)

ID                              : 1
Format                          : MPEG Audio
Format version                  : Version 1
Format profile                  : Layer 3
Codec ID                        : 55
Codec ID/Hint                    : MP3
Duration                        : 1h 46mn
Bit rate mode                    : Constant
Bit rate                        : 112 Kbps
Channel(s)                      : 2 channels
Sampling rate                    : 44.1 KHz
Compression mode                : Lossy
Delay relative to video          : 26ms
Stream size                      : 85.4 MiB (12%)
Alignment                        : Split accross interleaves
Interleave, duration            : 40 ms (1.00 video frame)
Interleave, preload duration    : 500 ms
DOWNLOAD:
kód:
http://www.upnito.sk/subor/fd05467a3a41a6f30344c879b17635fd.html

kód:
http://download.hellshare.sk/vriskot-1996-avi/3444878/

pass:
no
Návrat hore Goto down
Zobrazit informácie o autorovi http://warnerfilm.forumn.org
 
Vreskot/Scream(1996)
Zobraziť predchádzajúcu tému Zobraziť nasledujúcu tému Návrat hore 
Strana 1 z 1

Povolenie tohoto fóra:Nemôžete odpovedať na témy v tomto fóre.
Vsetko zadarmo :: .::Download filmy::. :: .::Filmy s ceskym a slovenskym dabingom::.-
Prejdi na: