Vsetko zadarmo

Vsetko zadarmo
 
DomovFAQHľadaťRegistráciaZoznam užívateľovUžívateľské skupinyPrihlásenie

Share | 
 

 Vitajte v džungli /Rundown, The(2003)

Zobraziť predchádzajúcu tému Zobraziť nasledujúcu tému Goto down 
AutorSpráva
aismen
Mega Uploader
Mega Uploader


Počet príspevkov : 703
Registration date : 16.04.2008

OdoslaťPredmet: Vitajte v džungli /Rundown, The(2003)   Ut september 27, 2011 6:50 pm

Vitajte v džungli
Rundown, The
Vítejte v džungli




Akční / Dobrodružný / Komedie / Thriller
USA, 2003, 100 min

Režie:
Peter Berg

Hudba:
Harry Gregson-Williams

Hrají:
Dwayne Johnson, Seann William Scott, Rosario Dawson, Christopher Walken, Ewen Bremner, Jon Gries, Ernie Reyes Jr., Garrett Warren, Jamal Duff, Jeff Chase, Arnold Schwarzenegger, Sven-Ole Thorsen

V drsné a nelítostné městské džungli jménem Los Angeles žije Beck (THE
ROCK) - muž, který je ochoten použít jakékoliv prostředky k tomu, aby
získal věc, pro kterou ho jeho klient poslal. Ať už jde o pozdní platbu
nebo vzácný prsten, Beck nedělá rozdíly a dle svého hesla tak ať už to
máme za sebou se za pomocí fyzické síly snaží práci co nejdříve
dokončit. Beck nikdy nevyhledává potíže a jen velmi nerad je dělá
ostatním. Naneštěstí je řešení potíží právě to, kvůli čemu si jej lidé
najímají a Becka čeká poslední velký problém, který musí vyřešit, aby
mohl svůj dosavadní styl života konečně hodit za hlavu. A stejně jako
amazonská džungle, do které je vyslán svůj poslední úkol splnit, je jeho
úloha velmi spletitá.

kód:

Format                          : AVI
Format/Info                      : Audio Video Interleave
File size                        : 1.28 GiB
Duration                        : 1h 39mn
Overall bit rate                : 1 831 Kbps
Movie name                      : VITAJTE V DZUNGLI
Writing application              : Lavf52.33.0
Original source form/Name        : VITAJTE_V_DZUNGLI

ID                              : 0
Format                          : xvid
Codec ID                        : xvid
Duration                        : 1h 39mn
Bit rate                        : 1 501 Kbps
Width                            : 720 pixels
Height                          : 306 pixels
Display aspect ratio            : 2.35:1
Frame rate                      : 25.000 fps
Bits/(Pixel*Frame)              : 0.273
Stream size                      : 1.05 GiB (82%)

ID                              : 1
Format                          : MPEG Audio
Format version                  : Version 1
Format profile                  : Layer 3
Mode                            : Joint stereo
Codec ID                        : 55
Codec ID/Hint                    : MP3
Duration                        : 1h 39mn
Bit rate mode                    : Constant
Bit rate                        : 320 Kbps
Channel(s)                      : 2 channels
Sampling rate                    : 48.0 KHz
Compression mode                : Lossy
Stream size                      : 229 MiB (17%)
Alignment                        : Aligned on interleaves
Interleave, duration            : 24 ms (0.60 video frame)
Interleave, preload duration    : 24 ms
Writing library                  : LAME3.98.2


DOWNLOAD:
kód:
http://www.upnito.sk/subor/ece059a1905f754a02a6beeea03eb26b.html
http://www.upnito.sk/subor/34914561f34de8c86b942d73b245b660.html
PASS:
no
Návrat hore Goto down
Zobrazit informácie o autorovi http://warnerfilm.forumn.org
 
Vitajte v džungli /Rundown, The(2003)
Zobraziť predchádzajúcu tému Zobraziť nasledujúcu tému Návrat hore 
Strana 1 z 1

Povolenie tohoto fóra:Nemôžete odpovedať na témy v tomto fóre.
Vsetko zadarmo :: .::Download filmy::. :: .::Filmy s ceskym a slovenskym dabingom::.-
Prejdi na: