Vsetko zadarmo

Vsetko zadarmo
 
DomovFAQHľadaťRegistráciaZoznam užívateľovUžívateľské skupinyPrihlásenie

Share | 
 

 S. Darko/S. Darko(2009)

Zobraziť predchádzajúcu tému Zobraziť nasledujúcu tému Goto down 
AutorSpráva
aismen
Mega Uploader
Mega Uploader


Počet príspevkov : 703
Registration date : 16.04.2008

OdoslaťPredmet: S. Darko/S. Darko(2009)   Ut september 27, 2011 6:23 pm

S. Darko

Mysteriózní / Sci-Fi / Thriller / Krimi

USA, 2009, 101 min
Režie:
Chris Fisher
Hrají:
Jackson Rathbone, Daveigh Chase, Ed Westwick, Briana Evigan, Elizabeth Berkley, John Hawkes, Zulay Henao, Matthew Davis, James Lafferty


http://www.csfd.cz/film/242486-s-darko/

Príbeh nadväzuje sedem rokov po prvom filme, keď mladšia sestra Samantha Darko a jej najlepšia kamarátka Corey utečú z domu a chystajú sa na roadtrip do Los Angeles. Obe sú ale poznačené bizarnou víziou, ktorá všetko zmení...
kód:

General
Complete name                    : C:\Users\Pipo\Desktop\S.Darko.2009.DVDRip.XviD-BeStDivX\S.Darko.2009.avi
Format                          : AVI
Format/Info                      : Audio Video Interleave
File size                        : 699 MiB
Duration                        : 1h 43mn
Overall bit rate                : 948 Kbps
Writing application              : VirtualDubMod 1.5.10.2 (build 2540/release)
Writing library                  : VirtualDubMod build 2540/release

Video
ID                              : 0
Format                          : MPEG-4 Visual
Format profile                  : Advanced Simple@L5
Format settings, BVOP            : 2
Format settings, QPel            : No
Format settings, GMC            : No warppoints
Format settings, Matrix          : Default (H.263)
Muxing mode                      : Packed bitstream
Codec ID                        : XVID
Codec ID/Hint                    : XviD
Duration                        : 1h 43mn
Bit rate                        : 806 Kbps
Width                            : 608 pixels
Height                          : 336 pixels
Display aspect ratio            : 16:9
Frame rate                      : 23.976 fps
Color space                      : YUV
Chroma subsampling              : 4:2:0
Bit depth                        : 8 bits
Scan type                        : Progressive
Compression mode                : Lossy
Bits/(Pixel*Frame)              : 0.165
Stream size                      : 595 MiB (85%)
Writing library                  : XviD 1.1.2 (UTC 2006-11-01)

Audio
ID                              : 1
Format                          : MPEG Audio
Format version                  : Version 1
Format profile                  : Layer 3
Mode                            : Joint stereo
Codec ID                        : 55
Codec ID/Hint                    : MP3
Duration                        : 1h 43mn
Bit rate mode                    : Variable
Bit rate                        : 128 Kbps
Channel(s)                      : 2 channels
Sampling rate                    : 48.0 KHz
Compression mode                : Lossy
Stream size                      : 95.1 MiB (14%)
Alignment                        : Aligned on interleaves
Interleave, duration            : 24 ms (0.58 video frame)
Interleave, preload duration    : 143 ms
Writing library                  : LAME3.90.
Encoding settings                : -m j -V 4 -q 2 -lowpass 17.6 --abr 128

DOWNLOAD:
kód:
http://www.upnito.sk/subor/8f7270fbbd4ed1dfe026f1ab3786ed16.html
PASS:
no
Návrat hore Goto down
Zobrazit informácie o autorovi http://warnerfilm.forumn.org
 
S. Darko/S. Darko(2009)
Zobraziť predchádzajúcu tému Zobraziť nasledujúcu tému Návrat hore 
Strana 1 z 1

Povolenie tohoto fóra:Nemôžete odpovedať na témy v tomto fóre.
Vsetko zadarmo :: .::Download filmy::. :: .::Zahranicna tvorba::.-
Prejdi na: