Vsetko zadarmo

Vsetko zadarmo
 
DomovFAQHľadaťRegistráciaZoznam užívateľovUžívateľské skupinyPrihlásenie

Share | 
 

 Rolničky kam se podíváš / Jingle All the Way (1996)

Zobraziť predchádzajúcu tému Zobraziť nasledujúcu tému Goto down 
AutorSpráva
aismen
Mega Uploader
Mega Uploader


Počet príspevkov : 703
Registration date : 16.04.2008

OdoslaťPredmet: Rolničky kam se podíváš / Jingle All the Way (1996)   Ut september 27, 2011 4:00 pm

Všade samé zvončeky
Jingle All the Way
Rolničky, kam se podíváš


Rodinný / Dobrodružný / Komedie
USA, 1996, 88 min

CSFD

Režie:Brian Levant
Hudba:David Newman
Hrají:Arnold Schwarzenegger, Sinbad, Phil Hartman, Rita Wilson, Robert Conrad, Martin Mull, Jake Lloyd, James Belushi, Laraine Newman, Justin Chapman, Harvey Korman, Richard Moll, John Rothman, Alan Blumenfeld, Yeardley Smith, Amy Pietz, Steve Van Wormer, Curtis Armstrong, Jim Meskimen, Patrick Richwood, Marianne Muellerleile, Verne Troyer, Paul Wight


Turboman je zlý sen, noční můra každého otce a očistec za všechny prohřešky, kterých se tatínkové dopustili. Turboman je hračka a velké přání milionů dětí. Výrobce ale nereaguje moc pružně, a tak plastového panáka sežene jen ten nejrychlejší. Arnold Schwarzenegger chce splnit přání svého syna a dát mu pod rozzářený vánoční stromek, co si bude přát. Doufal, že se jen zeptá, zajde do nejbližšího hračkářství a jednoduše za rozmary svého potomka zaplatí. Musí ale napnout všechny své titánské síly, vyvinout obrovskou rychlost i důvtip a přečkat přehršel nástrah, aby nakonec tu zatracenou umělohmotnou postavičku získal.

INFO:
kód:
Format                          : AVI
Format/Info                      : Audio Video Interleave
File size                        : 1.40 GiB
Duration                        : 1h 29mn
Overall bit rate                : 2 225 Kbps
Writing application              : VirtualDubMod 1.5.10.2 (build 2540/release)
Writing library                  : VirtualDubMod build 2540/release

Video
ID                              : 0
Format                          : MPEG-4 Visual
Format profile                  : Advanced Simple@L5
Format settings, BVOP            : 2
Format settings, QPel            : No
Format settings, GMC            : No warppoints
Format settings, Matrix          : Custom
Codec ID                        : XVID
Codec ID/Hint                    : XviD
Duration                        : 1h 29mn
Bit rate                        : 1 826 Kbps
Width                            : 720 pixels
Height                          : 384 pixels
Display aspect ratio            : 1.875
Frame rate                      : 25.000 fps
Color space                      : YUV
Chroma subsampling              : 4:2:0
Bit depth                        : 8 bits
Scan type                        : Progressive
Compression mode                : Lossy
Bits/(Pixel*Frame)              : 0.264
Stream size                      : 1.15 GiB (82%)
Writing library                  : XviD 1.2.1 (UTC 2008-12-04)

Audio #1
ID                              : 1
Format                          : AC-3
Format/Info                      : Audio Coding 3
Mode extension                  : CM (complete main)
Codec ID                        : 2000
Duration                        : 1h 29mn
Bit rate mode                    : Constant
Bit rate                        : 192 Kbps
Channel(s)                      : 2 channels
Channel positions                : Front: L R
Sampling rate                    : 48.0 KHz
Bit depth                        : 16 bits
Compression mode                : Lossy
Stream size                      : 123 MiB (9%)
Alignment                        : Split accross interleaves
Interleave, duration            : 40 ms (1.00 video frame)
Interleave, preload duration    : 500 ms

Audio #2
ID                              : 2
Format                          : AC-3
Format/Info                      : Audio Coding 3
Mode extension                  : CM (complete main)
Codec ID                        : 2000
Duration                        : 1h 29mn
Bit rate mode                    : Constant
Bit rate                        : 192 Kbps
Channel(s)                      : 2 channels
Channel positions                : Front: L R
Sampling rate                    : 48.0 KHz
Bit depth                        : 16 bits
Compression mode                : Lossy
Stream size                      : 123 MiB (9%)
Alignment                        : Split accross interleaves
Interleave, duration            : 40 ms (1.00 video frame)
Interleave, preload duration    : 500 ms

DOWNLOAD:

hellshare

kód:
http://download.hellshare.sk/rolnicky-kam-se-podivas-avi/3666999

PASS:no
Návrat hore Goto down
Zobrazit informácie o autorovi http://warnerfilm.forumn.org
 
Rolničky kam se podíváš / Jingle All the Way (1996)
Zobraziť predchádzajúcu tému Zobraziť nasledujúcu tému Návrat hore 
Strana 1 z 1

Povolenie tohoto fóra:Nemôžete odpovedať na témy v tomto fóre.
Vsetko zadarmo :: .::Download filmy::. :: .::Filmy s ceskym a slovenskym dabingom::.-
Prejdi na: