Vsetko zadarmo

Vsetko zadarmo
 
DomovFAQHľadaťRegistráciaZoznam užívateľovUžívateľské skupinyPrihlásenie

Share | 
 

 Muži v černém 2 / Men In Black 2 (2002)

Zobraziť predchádzajúcu tému Zobraziť nasledujúcu tému Goto down 
AutorSpráva
aismen
Mega Uploader
Mega Uploader


Počet príspevkov : 703
Registration date : 16.04.2008

OdoslaťPredmet: Muži v černém 2 / Men In Black 2 (2002)   Ut september 27, 2011 3:52 pm

Muži v čiernom 2
Men in Black 2
Muži v černém 2




Akční / Komedie / Sci-Fi
USA, 2002, 85 min

Režie:Barry Sonnenfeld
Hudba:Danny Elfman
Hrají:Tommy Lee Jones, Will Smith, Rosario Dawson, Lara Flynn Boyle, Johnny Knoxville, Rip Torn, Tony Shalhoub, Patrick Warburton, David Cross, Michael Bailey Smith, Michael Jackson, Nick Cannon, Doug Jones, Peter Graves, Barry Sonnenfeld, Matthew McGrory, Richard Pearson, Derek Mears, Darrell Foster, Martin Klebba, Derek Cecil, Kevin Grevioux, Brian Steele, Rick Baker

CSFD

Uplynuly čtyři roky od okamžiku, kdy K a J - genti tajné neoficiální organizace MIB dohlížející na utajené mimozemské imigranty na Zemi - dvrátili velkou intergalaktickou katastrofu. Tehdy čerstvě získaný agent J se v organizaci etabloval, zatímco jeho starší zkušený kolega K se vrátil k pohodlnému civilnímu životu a pracuje na poště. Během rutinního vyšetřování však J odhalí spiknutí řízené zlou kytothianskou stvůrou Serleenou, vystupující v podobě sexy modelky luxusního spodního prádla. Serleena však obsadí budovu organizace MIB a jako rukojmí si vezme jeho zaměstnance. J nezbývá než požádat o pomoc jediného muže, který mu s řešením situace může pomoci - zpohodlnělého K.

INFO:
kód:
Format                          : AVI
Format/Info                      : Audio Video Interleave
File size                        : 810 MiB
Duration                        : 1h 24mn
Overall bit rate                : 1 340 Kbps

Video
ID                              : 0
Format                          : MPEG-4 Visual
Format profile                  : Simple@L3
Format settings, BVOP            : No
Format settings, QPel            : No
Format settings, GMC            : No warppoints
Format settings, Matrix          : Default (H.263)
Codec ID                        : XVID
Codec ID/Hint                    : XviD
Duration                        : 1h 24mn
Bit rate                        : 1 199 Kbps
Width                            : 640 pixels
Height                          : 360 pixels
Display aspect ratio            : 16:9
Frame rate                      : 25.000 fps
Color space                      : YUV
Chroma subsampling              : 4:2:0
Bit depth                        : 8 bits
Scan type                        : Progressive
Compression mode                : Lossy
Bits/(Pixel*Frame)              : 0.208
Stream size                      : 725 MiB (90%)
Writing library                  : Magic0432

Audio
ID                              : 1
Format                          : MPEG Audio
Format version                  : Version 1
Format profile                  : Layer 3
Mode                            : Joint stereo
Codec ID                        : 55
Codec ID/Hint                    : MP3
Duration                        : 1h 24mn
Bit rate mode                    : Constant
Bit rate                        : 128 Kbps
Channel(s)                      : 2 channels
Sampling rate                    : 44.1 KHz
Compression mode                : Lossy
Stream size                      : 77.4 MiB (10%)
Alignment                        : Aligned on interleaves
Interleave, duration            : 26 ms (0.65 video frame)
Writing library                  : LAME3.97

DOWNLOAD:

hellshare

kód:
http://download.hellshare.sk/muzi-v-cernem-2-avi/3666988

PASS:no
Návrat hore Goto down
Zobrazit informácie o autorovi http://warnerfilm.forumn.org
 
Muži v černém 2 / Men In Black 2 (2002)
Zobraziť predchádzajúcu tému Zobraziť nasledujúcu tému Návrat hore 
Strana 1 z 1

Povolenie tohoto fóra:Nemôžete odpovedať na témy v tomto fóre.
Vsetko zadarmo :: .::Download filmy::. :: .::Filmy s ceskym a slovenskym dabingom::.-
Prejdi na: