Vsetko zadarmo

Vsetko zadarmo
 
DomovFAQHľadaťRegistráciaZoznam užívateľovUžívateľské skupinyPrihlásenie

Share | 
 

  Andrew - člen naší rodiny / Bicentennial Man (1999)

Zobraziť predchádzajúcu tému Zobraziť nasledujúcu tému Goto down 
AutorSpráva
aismen
Mega Uploader
Mega Uploader


Počet príspevkov : 703
Registration date : 16.04.2008

OdoslaťPredmet: Andrew - člen naší rodiny / Bicentennial Man (1999)   Ut september 27, 2011 3:44 pm

Andrew, člen našej rodiny
Muž tisícročia
Bicentennial Man
Andrew - člen naší rodiny


Sci-Fi / Drama / Romantický
USA / Německo, 1999, 132 min

CSFD

Režie:Chris Columbus
Hudba:James Horner
Hrají:Robin Williams, Embeth Davidtz, Sam Neill, Oliver Platt, Kiersten Warren, Wendy Crewson, Hallie Kate Eisenberg, John Michael Higgins, Bradley Whitford, Lynne Thigpen, Richard Cross, Stephen Root

Jako většina lidí v budoucnosti, také Richard Martin koupil pro svou rodinu domácího robota. Ten jejich, nový model s označením NDR-114, dostal jméno Andrew a zpočátku nikdo netušil, jaký unikát představuje a jak moc ovlivní život celé rodiny. Na rozdíl od ostatních robotů mu to myslí, má smysl pro humor, je schopen cítit a vnímat krásu, rychle se učí a je překvapivě kreativní. Z výkonného služebníka se postupně stává miláčkem rodiny, zejména malé Amandy, která se ho zpočátku bála a neměla ho ráda. Současně s tím, jak se s pomocí Richarda zdokonaluje a polidšťuje, však stále více touží po tom, stát se opravdovým a svobodným člověkem. Začne nosit šaty, bydlet ve vlastním domě, založí si konto v bance a po letech dokonce získá od Richarda Martina svobodu. Ani to mu však po čase nestačí a proto se vydá na dlouhou cestu po světě, aby našel podobně odlišné roboty jako je on sám. To se mu sice nepodaří, narazí však na podivínského vynálezce Burnse, který mu pomůže s přestavbou jeho kovového těla pomocí organických materiálů. A nejenže je nakonec vzhledem nerozeznatelný od lidí, ale získá dokonce schopnost cítit jako člověk, ať už je to bolest nebo žárlivost či dokonce láska. Takto se vrací k rodině Martinových, kde už se mnohé změnilo a z malé Amandy je dospělá žena. Dospělá a velmi krásná. A protože Andrew má vytříbený smysl pro krásu, není divu, že vše značně zkomplikuje. Posledním krokem k tomu, aby se robot Andrew stal člověkem, je získat schopnost stárnout

INFO:
kód:
Format                          : AVI
Format/Info                      : Audio Video Interleave
File size                        : 1.81 GiB
Duration                        : 2h 5mn
Overall bit rate                : 2 054 Kbps
Writing application              : VirtualDubMod 1.5.4.1 (build 2178/release)
Writing library                  : VirtualDubMod build 2178/release

Video
ID                              : 0
Format                          : MPEG-4 Visual
Format profile                  : Advanced Simple@L5
Format settings, BVOP            : 1
Format settings, QPel            : No
Format settings, GMC            : No warppoints
Format settings, Matrix          : Custom
Codec ID                        : XVID
Codec ID/Hint                    : XviD
Duration                        : 2h 5mn
Bit rate                        : 1 791 Kbps
Width                            : 720 pixels
Height                          : 400 pixels
Display aspect ratio            : 16:9
Frame rate                      : 25.000 fps
Color space                      : YUV
Chroma subsampling              : 4:2:0
Bit depth                        : 8 bits
Scan type                        : Progressive
Compression mode                : Lossy
Bits/(Pixel*Frame)              : 0.249
Stream size                      : 1.58 GiB (87%)
Writing library                  : XviD 1.1.0 (UTC 2005-11-22)

Audio
ID                              : 1
Format                          : AC-3
Format/Info                      : Audio Coding 3
Mode extension                  : CM (complete main)
Codec ID                        : 2000
Duration                        : 2h 5mn
Bit rate mode                    : Constant
Bit rate                        : 256 Kbps
Channel(s)                      : 2 channels
Channel positions                : Front: L R
Sampling rate                    : 48.0 KHz
Bit depth                        : 16 bits
Compression mode                : Lossy
Stream size                      : 231 MiB (12%)
Alignment                        : Split accross interleaves
Interleave, duration            : 96 ms (2.40 video frames)
Interleave, preload duration    : 96 ms
Language                        : Czech

DOWNLOAD:

hellshare

kód:
http://download.hellshare.sk/andrew-clen-nasi-rodiny-avi/3666892

PASS:no
Návrat hore Goto down
Zobrazit informácie o autorovi http://warnerfilm.forumn.org
 
Andrew - člen naší rodiny / Bicentennial Man (1999)
Zobraziť predchádzajúcu tému Zobraziť nasledujúcu tému Návrat hore 
Strana 1 z 1

Povolenie tohoto fóra:Nemôžete odpovedať na témy v tomto fóre.
Vsetko zadarmo :: .::Download filmy::. :: .::Filmy s ceskym a slovenskym dabingom::.-
Prejdi na: