Vsetko zadarmo

Vsetko zadarmo
 
DomovFAQHľadaťRegistráciaZoznam užívateľovUžívateľské skupinyPrihlásenie

Share | 
 

 Ruská ruleta / 13 Tzameti (2005)

Zobraziť predchádzajúcu tému Zobraziť nasledujúcu tému Goto down 
AutorSpráva
aismen
Mega Uploader
Mega Uploader


Počet príspevkov : 703
Registration date : 16.04.2008

OdoslaťPredmet: Ruská ruleta / 13 Tzameti (2005)   Ut september 27, 2011 3:38 pm

13 Tzameti
Ruská ruleta
Třináctka


Drama / Thriller / Krimi
Francie / Gruzie, 2005, 86 min

CSFD

Režie:Géla Babluani
Hrají:Aurélien Recoing, George Babluani, Pascal Bongard, Jo Prestia, Augustin Legrand, Jean-Baptiste Legrand, Olivier Rabourdin, Stéphane Roquet

Hrdinou příběhu, který připomíná rané filmy Bressonovy a Wendersovy, je mladík Sebastien (hraje ho Georges Babluani). S vidinou, že si vydělá spoustu peněz, vstoupí do podivného světa za zavřenými dveřmi, který připomíná noční můru a kde se hraje ještě podivnější hra o život. „Často se mi vracejí vzpomínky z dětství,“ říká režisér. „Zafixované obrazy jsou jako paprsky světla protínající temnotu. Jsou vždy nejasně přítomné, ale když se pokouším znovu objevit jejich panenskou kvalitu, postrádám přitom pocit nevinnosti z dětství.“ Originální černobílý snímek ve stylu „film noir“ je pozoruhodnou výpovědí o lidech, jejich aroganci, zlobě i strachu.

INFO:
kód:
Format                          : AVI
Format/Info                      : Audio Video Interleave
File size                        : 700 MiB
Duration                        : 1h 29mn
Overall bit rate                : 1 096 Kbps
Movie name                      : Ruská ruleta / 13 Tzameti (2005)
Writing application              : VirtualDubMod 1.5.10.2 (build 2540/release)
Writing library                  : VirtualDubMod build 2540/release

Video
ID                              : 0
Format                          : MPEG-4 Visual
Format profile                  : Advanced Simple@L5
Format settings, BVOP            : No
Format settings, QPel            : No
Format settings, GMC            : No warppoints
Format settings, Matrix          : Default (MPEG)
Codec ID                        : XVID
Codec ID/Hint                    : XviD
Duration                        : 1h 29mn
Bit rate                        : 895 Kbps
Width                            : 640 pixels
Height                          : 352 pixels
Display aspect ratio            : 16:9
Frame rate                      : 25.000 fps
Color space                      : YUV
Chroma subsampling              : 4:2:0
Bit depth                        : 8 bits
Scan type                        : Progressive
Compression mode                : Lossy
Bits/(Pixel*Frame)              : 0.159
Stream size                      : 572 MiB (82%)
Writing library                  : XviD 1.2.0.dev47 (UTC 2006-11-01)

Audio
ID                              : 1
Format                          : MPEG Audio
Format version                  : Version 1
Format profile                  : Layer 3
Mode                            : Joint stereo
Mode extension                  : MS Stereo
Codec ID                        : 55
Codec ID/Hint                    : MP3
Duration                        : 1h 29mn
Bit rate mode                    : Variable
Bit rate                        : 196 Kbps
Channel(s)                      : 2 channels
Sampling rate                    : 48.0 KHz
Compression mode                : Lossy
Stream size                      : 120 MiB (17%)
Alignment                        : Aligned on interleaves
Interleave, duration            : 24 ms (0.60 video frame)
Interleave, preload duration    : 551 ms
Writing library                  : LAME3.97
Encoding settings                : -m j -V 4 -q 3 -lowpass 18.6 --abr 196

DOWNLOAD:

hellshare

kód:
http://download.hellshare.sk/ruska-ruleta-avi/3667023

PASS:no
Návrat hore Goto down
Zobrazit informácie o autorovi http://warnerfilm.forumn.org
 
Ruská ruleta / 13 Tzameti (2005)
Zobraziť predchádzajúcu tému Zobraziť nasledujúcu tému Návrat hore 
Strana 1 z 1

Povolenie tohoto fóra:Nemôžete odpovedať na témy v tomto fóre.
Vsetko zadarmo :: .::Download filmy::. :: .::Filmy s ceskym a slovenskym dabingom::.-
Prejdi na: