Vsetko zadarmo

Vsetko zadarmo
 
DomovFAQHľadaťRegistráciaZoznam užívateľovUžívateľské skupinyPrihlásenie

Share | 
 

 Tucker And Dale vs. Zlo / Tucker And Dale vs Evil (2010)

Zobraziť predchádzajúcu tému Zobraziť nasledujúcu tému Goto down 
AutorSpráva
aismen
Mega Uploader
Mega Uploader


Počet príspevkov : 703
Registration date : 16.04.2008

OdoslaťPredmet: Tucker And Dale vs. Zlo / Tucker And Dale vs Evil (2010)   Ut september 27, 2011 3:33 pm

Tucker & Dale vs Evil
Tucker & Dale vs. Zlo


Komedie / Horor
Kanada, 2010, 89 min

Režie:Eli Craig
Hrají:Alan Tudyk, Katrina Bowden, Tyler Labine, Jesse Moss, Christie Laing, Chelan Simmons

CSFD

Tucker a Dale (Tudyk & Labine), dva neodolatelní burani ze zapadákova v Západní Virginii, se vydávají do polorozpadlé barabizny, které říkají chata, aby tu vypili pár piv, chytili nějaké ryby a užili si trochu zábavy. Skupinka středoškolských studentů, kterou potkají cestou, ale z jejich podezřelého chování a vzhledu usoudí, že takhle nemůže vypadat nikdo jiný, než dva šílení zabijáci z venkova. Zdá se, že poklidné prázdniny Tuckera a Dalea přinesou nečekaně krvavé a zábavné zvraty.

INFO:
kód:
Format                          : AVI
Format/Info                      : Audio Video Interleave
File size                        : 848 MiB
Duration                        : 1h 28mn
Overall bit rate                : 1 338 Kbps
Writing application              : VirtualDubMod 1.5.10.2 (build 2540/release)
Writing library                  : VirtualDubMod build 2540/release

Video
ID                              : 0
Format                          : MPEG-4 Visual
Format profile                  : Advanced Simple@L5
Format settings, BVOP            : 2
Format settings, QPel            : No
Format settings, GMC            : No warppoints
Format settings, Matrix          : Default (H.263)
Codec ID                        : XVID
Codec ID/Hint                    : XviD
Duration                        : 1h 28mn
Bit rate                        : 1 201 Kbps
Width                            : 640 pixels
Height                          : 272 pixels
Display aspect ratio            : 2.35:1
Frame rate                      : 23.976 fps
Color space                      : YUV
Chroma subsampling              : 4:2:0
Bit depth                        : 8 bits
Scan type                        : Progressive
Compression mode                : Lossy
Bits/(Pixel*Frame)              : 0.288
Stream size                      : 761 MiB (90%)
Writing library                  : XviD 1.2.1 (UTC 2008-12-04)

Audio
ID                              : 1
Format                          : MPEG Audio
Format version                  : Version 1
Format profile                  : Layer 3
Mode                            : Joint stereo
Mode extension                  : MS Stereo
Codec ID                        : 55
Codec ID/Hint                    : MP3
Duration                        : 1h 28mn
Bit rate mode                    : Constant
Bit rate                        : 128 Kbps
Channel(s)                      : 2 channels
Sampling rate                    : 48.0 KHz
Compression mode                : Lossy
Delay relative to video          : 24ms
Stream size                      : 81.1 MiB (10%)
Alignment                        : Aligned on interleaves
Interleave, duration            : 42 ms (1.00 video frame)
Interleave, preload duration    : 504 ms

DOWNLOAD:

hellshare

kód:
http://download.hellshare.sk/tucker-and-dale-vs-evil-2010-avi/3672686

PASS:no
Návrat hore Goto down
Zobrazit informácie o autorovi http://warnerfilm.forumn.org
 
Tucker And Dale vs. Zlo / Tucker And Dale vs Evil (2010)
Zobraziť predchádzajúcu tému Zobraziť nasledujúcu tému Návrat hore 
Strana 1 z 1

Povolenie tohoto fóra:Nemôžete odpovedať na témy v tomto fóre.
Vsetko zadarmo :: .::Download filmy::. :: .::Filmy s ceskym a slovenskym dabingom::.-
Prejdi na: