Vsetko zadarmo

Vsetko zadarmo
 
DomovFAQHľadaťRegistráciaZoznam užívateľovUžívateľské skupinyPrihlásenie

Share | 
 

 Božský Bruce / Bruce Almighty (2003)

Zobraziť predchádzajúcu tému Zobraziť nasledujúcu tému Goto down 
AutorSpráva
aismen
Mega Uploader
Mega Uploader


Počet príspevkov : 703
Registration date : 16.04.2008

OdoslaťPredmet: Božský Bruce / Bruce Almighty (2003)   Po september 26, 2011 7:15 pm

Bruce, Všemohúci
Bruce Almighty
Božský Bruce


Komedie / Fantasy / Romantický
USA, 2003, 100 min

CSFD

Režie:Tom Shadyac
Hudba:John Debney
Hrají:Jim Carrey, Jennifer Aniston, Morgan Freeman, Philip Baker Hall, Lisa Ann Walter, Steve Carell, Nora Dunn, Eddie Jemison, Paul Satterfield, Sally Kirkland, Emilio Rivera, Robert Curtis-Brown, Shaun Robinson, Catherine Bell, Mary Pat Gleason, Ara Celi, Max Grodénchik, Shashawnee Hall, Colby French, Bradley Stryker, Mark Adair-Rios, Noel Gugliemi, Ted Garcia, Annie Wersching

Bruce Nolan (Jim Carrey) je reportér zpravodajské relace Eyewitness News lokální televize z Buffala, který je známý pro své humorné a prosté příběhy. Jeho reportáže dělají radost všem kromě jeho samého - mnohem raději by vystřídal moderátora, který již brzy odchází do důchodu, nebo se aspoň zabýval důležitými zprávami z celého světa. Bruce je nespokojený téměř se vším, co se v jeho životě děje, a málokdy si nechá ujít příležitost si na svůj život postěžovat. Jeho přítelkyně Grace (Jennifer Aniston), která provozuje pečovatelské středisko, je se svým životem spokojená a Bruce miluje i přes jeho negativistický přístup. Zatímco on sní o tom, že se jednou stane zpravodajskou legendou, ona je ráda, že může pomáhat lidem.

INFO:
kód:
Format                          : AVI
Format/Info                      : Audio Video Interleave
File size                        : 1.37 GiB
Duration                        : 1h 36mn
Overall bit rate                : 2 025 Kbps
Writing application              : VirtualDubMod 1.5.4.1 (build 2178/release)
Writing library                  : VirtualDubMod build 2178/release

Video
ID                              : 0
Format                          : MPEG-4 Visual
Format profile                  : Advanced Simple@L5
Format settings, BVOP            : 1
Format settings, QPel            : No
Format settings, GMC            : No warppoints
Format settings, Matrix          : Custom
Codec ID                        : XVID
Codec ID/Hint                    : XviD
Duration                        : 1h 36mn
Bit rate                        : 1 634 Kbps
Width                            : 624 pixels
Height                          : 336 pixels
Display aspect ratio            : 1.857
Frame rate                      : 25.000 fps
Color space                      : YUV
Chroma subsampling              : 4:2:0
Bit depth                        : 8 bits
Scan type                        : Progressive
Compression mode                : Lossy
Bits/(Pixel*Frame)              : 0.312
Stream size                      : 1.11 GiB (81%)
Writing library                  : XviD 1.2.0.dev47 (UTC 2006-11-01)

Audio
ID                              : 1
Format                          : AC-3
Format/Info                      : Audio Coding 3
Mode extension                  : CM (complete main)
Codec ID                        : 2000
Duration                        : 1h 36mn
Bit rate mode                    : Constant
Bit rate                        : 384 Kbps
Channel(s)                      : 6 channels
Channel positions                : Front: L C R, Side: L R, LFE
Sampling rate                    : 48.0 KHz
Bit depth                        : 16 bits
Compression mode                : Lossy
Stream size                      : 266 MiB (19%)
Alignment                        : Split accross interleaves
Interleave, duration            : 96 ms (2.40 video frames)
Interleave, preload duration    : 96 ms
Language                        : Czech

DOWNLOAD:

hellshare

kód:
http://download.hellshare.sk/bozsky-bruce-avi/3666926

PASS:no
Návrat hore Goto down
Zobrazit informácie o autorovi http://warnerfilm.forumn.org
 
Božský Bruce / Bruce Almighty (2003)
Zobraziť predchádzajúcu tému Zobraziť nasledujúcu tému Návrat hore 
Strana 1 z 1

Povolenie tohoto fóra:Nemôžete odpovedať na témy v tomto fóre.
Vsetko zadarmo :: .::Download filmy::. :: .::Filmy s ceskym a slovenskym dabingom::.-
Prejdi na: