Vsetko zadarmo

Vsetko zadarmo
 
DomovFAQHľadaťRegistráciaZoznam užívateľovUžívateľské skupinyPrihlásenie

Share | 
 

 Sbal prachy a vypadni / Lock, Stock and Two Smoking Barrels

Zobraziť predchádzajúcu tému Zobraziť nasledujúcu tému Goto down 
AutorSpráva
aismen
Mega Uploader
Mega Uploader


Počet príspevkov : 703
Registration date : 16.04.2008

OdoslaťPredmet: Sbal prachy a vypadni / Lock, Stock and Two Smoking Barrels    Po september 26, 2011 7:06 pm

Zbaľ prachy a vypadni!
Lock, Stock and Two Smoking Barrels
Sbal prachy a vypadni


Krimi / Thriller / Komedie
Velká Británie, 1998, 107 min (Director's cut: 120 min)

CSFD

Režie:Guy Ritchie
Hudba:John Murphy
Hrají:Jason Flemyng, Dexter Fletcher, Nick Moran, Jason Statham, Steven Mackintosh, Nicholas Rowe, Vinnie Jones, Lenny McLean, Frank Harper, Vas Blackwood, Sting, Danny John-Jules, Alan Ford, Andrew Tiernan, Matthew Vaughn, Rob Brydon

Eddy je brilantní karbaník. Sto tisíc liber, které dal společně s kamarády dohromady, by mohl během jediného večera několikanásobně rozmnožit. Risk je zisk, ale ne vždycky. Eddy narazil na profesionály a za několik hodin prohrál 600 000 liber. Počty profesionálních hráčů jsou jednoduché. Eddy a jeho kámoši Tom, Bacon a Soap musí do týdne sehnat půl miliónu nebo začnou pomalu přicházet o prstíčky. I v tak velkém městě jako je Londýn se tak velký balík nedává dohromady snadno. Naštěstí bizarní londýnské podsvětí nabízí šikovným chlapíkům pár možností, jak rychle přijít k penězům...

INFO:
kód:
Format                          : AVI
Format/Info                      : Audio Video Interleave
File size                        : 1.45 GiB
Duration                        : 1h 42mn
Overall bit rate                : 2 033 Kbps
Writing application              : VirtualDubMod 1.5.10.2 (build 2542/release)
Writing library                  : VirtualDubMod build 2542/release

Video
ID                              : 0
Format                          : MPEG-4 Visual
Format profile                  : Advanced Simple@L5
Format settings, BVOP            : 2
Format settings, QPel            : No
Format settings, GMC            : No warppoints
Format settings, Matrix          : Default (H.263)
Muxing mode                      : Packed bitstream
Codec ID                        : XVID
Codec ID/Hint                    : XviD
Duration                        : 1h 42mn
Bit rate                        : 1 768 Kbps
Width                            : 704 pixels
Height                          : 368 pixels
Display aspect ratio            : 1.913
Frame rate                      : 25.000 fps
Color space                      : YUV
Chroma subsampling              : 4:2:0
Bit depth                        : 8 bits
Scan type                        : Progressive
Compression mode                : Lossy
Bits/(Pixel*Frame)              : 0.273
Stream size                      : 1.26 GiB (87%)
Writing library                  : XviD 1.2.0.dev47 (UTC 2006-11-01)

Audio
ID                              : 1
Format                          : AC-3
Format/Info                      : Audio Coding 3
Mode extension                  : CM (complete main)
Codec ID                        : 2000
Duration                        : 1h 42mn
Bit rate mode                    : Constant
Bit rate                        : 256 Kbps
Channel(s)                      : 2 channels
Channel positions                : Front: L R
Sampling rate                    : 48.0 KHz
Bit depth                        : 16 bits
Compression mode                : Lossy
Stream size                      : 188 MiB (13%)
Alignment                        : Split accross interleaves
Interleave, duration            : 40 ms (1.00 video frame)
Interleave, preload duration    : 500 ms

DOWNLOAD:

hellshare

kód:
http://download.hellshare.sk/sbal-prachy-a-vypadni-1998-avi/3667036

PASS:no
Návrat hore Goto down
Zobrazit informácie o autorovi http://warnerfilm.forumn.org
 
Sbal prachy a vypadni / Lock, Stock and Two Smoking Barrels
Zobraziť predchádzajúcu tému Zobraziť nasledujúcu tému Návrat hore 
Strana 1 z 1

Povolenie tohoto fóra:Nemôžete odpovedať na témy v tomto fóre.
Vsetko zadarmo :: .::Download filmy::. :: .::Filmy s ceskym a slovenskym dabingom::.-
Prejdi na: