Vsetko zadarmo

Vsetko zadarmo
 
DomovFAQHľadaťRegistráciaZoznam užívateľovUžívateľské skupinyPrihlásenie

Share | 
 

 Mladý mistr / Young Master-Shi di chu ma (1980)

Zobraziť predchádzajúcu tému Zobraziť nasledujúcu tému Goto down 
AutorSpráva
aismen
Mega Uploader
Mega Uploader


Počet príspevkov : 703
Registration date : 16.04.2008

OdoslaťPredmet: Mladý mistr / Young Master-Shi di chu ma (1980)   Po september 26, 2011 6:56 pm

Shi di chu ma
Mladý mistr
Young Master, The


Akční / Komedie
Hong Kong, 1980, 90 min

Režie:Jackie Chan
Hrají:Jackie Chan, Biao Yuen, Lily Li, Kien Shih, Mui Sang Fan, Pai Wei

CSFD

Každý rok se střetávají sousední kung-fu školy v turnaji o velkou prestiž. Škola mistra Thana vyhrává každý rok jen díky tomu, že jejich soutěžící oddíl vede Tigr, nejlepší žák školy. Ten se ale nechá podplatit, pod záminkou se vyhne soutěžení a potají vede konkurující oddíl. Ten vyhraje. Rozlobený Than schazuje vinu za náhradníka Tigra - Draka (Chan), kterému za to dělá ve škole peklo.Pak se ale dozví pravdu a Tigra vyhodí. Po velké hádce odejde i Drak s cílem najít Tigra a přinutit ho, aby se vrátil a mistra odprosil. Zaplete se však omylem s policií, která si ho splete s hledaným zločincem, a navíc rozhněvá žáky konkurenční školy. Do toho všeho uteče z vězení obávaný bojovník, pan Khan, ke kterému se připojí Tigr... Drak, který má v zádech policii i lumpy, to však nevzdává a díky své znalosti bojového umění se brání.

INFO:
kód:
Format                          : AVI
Format/Info                      : Audio Video Interleave
File size                        : 700 MiB
Duration                        : 1h 42mn
Overall bit rate                : 959 Kbps

Video
ID                              : 0
Format                          : MPEG-4 Visual
Format profile                  : Advanced Simple@L5
Format settings, BVOP            : 2
Format settings, QPel            : No
Format settings, GMC            : No warppoints
Format settings, Matrix          : Default (H.263)
Codec ID                        : XVID
Codec ID/Hint                    : XviD
Duration                        : 1h 42mn
Bit rate                        : 818 Kbps
Width                            : 672 pixels
Height                          : 296 pixels
Display aspect ratio            : 2.25:1
Frame rate                      : 25.000 fps
Color space                      : YUV
Chroma subsampling              : 4:2:0
Bit depth                        : 8 bits
Scan type                        : Progressive
Compression mode                : Lossy
Bits/(Pixel*Frame)              : 0.165
Stream size                      : 597 MiB (85%)
Writing library                  : XviD 1.2.1 (UTC 2008-12-04)

Audio
ID                              : 1
Format                          : MPEG Audio
Format version                  : Version 1
Format profile                  : Layer 3
Codec ID                        : 55
Codec ID/Hint                    : MP3
Duration                        : 1h 42mn
Bit rate mode                    : Constant
Bit rate                        : 128 Kbps
Channel(s)                      : 2 channels
Sampling rate                    : 48.0 KHz
Compression mode                : Lossy
Stream size                      : 93.5 MiB (13%)
Alignment                        : Split accross interleaves
Interleave, duration            : 24 ms (0.60 video frame)

DOWNLOAD:

hellshare

kód:
http://download.hellshare.sk/mlady-mistr-avi/3666973

PASS:no
Návrat hore Goto down
Zobrazit informácie o autorovi http://warnerfilm.forumn.org
 
Mladý mistr / Young Master-Shi di chu ma (1980)
Zobraziť predchádzajúcu tému Zobraziť nasledujúcu tému Návrat hore 
Strana 1 z 1

Povolenie tohoto fóra:Nemôžete odpovedať na témy v tomto fóre.
Vsetko zadarmo :: .::Download filmy::. :: .::Filmy s ceskym a slovenskym dabingom::.-
Prejdi na: