Vsetko zadarmo

Vsetko zadarmo
 
DomovFAQHľadaťRegistráciaZoznam užívateľovUžívateľské skupinyPrihlásenie

Share | 
 

 Taxikář / Taxi Driver (1976)

Zobraziť predchádzajúcu tému Zobraziť nasledujúcu tému Goto down 
AutorSpráva
aismen
Mega Uploader
Mega Uploader


Počet príspevkov : 703
Registration date : 16.04.2008

OdoslaťPredmet: Taxikář / Taxi Driver (1976)    So september 24, 2011 11:58 am

Taxikár
Taxi Driver
Taxikář


Drama / Thriller / Krimi
USA, 1976, 113 min

CSFD

Režie:Martin Scorsese
Hudba:Bernard Herrmann
Hrají:Robert De Niro, Jodie Foster, Albert Brooks, Harvey Keitel, Peter Boyle, Cybill Shepherd, Victor Argo, Brenda Dickson, Martin Scorsese, Ralph S. Singleton, Joe Spinell, Debbi Morgan, Frank Adu

Travis Bickle je vojenský veterán, který po návratu z Vietnamu trpí nespavostí. Najde si proto práci jako noční taxikář. Během nekonečného popojíždění „špinavými“ ulicemi New Yorku naráží jen na násilí, drogy a prodejný sex. V dlouhodobě traumatizovaném, frustrovaném Travisovi sílí odhodlání k radikálnímu činu. To v osamělém muži nechtěně posílí jak elegantní Betsy, spolupracující na volební kampani senátora Palantinea, tak nezletilá prostitutka Iris.

INFO:
kód:
Format                          : Matroska
Format version                  : Version 2
File size                        : 3.24 GiB
Duration                        : 1h 53mn
Overall bit rate                : 4 079 Kbps
Movie name                      : m720p-movie.net
Encoded date                    : UTC 2011-04-29 18:23:45
Writing application              : mkvmerge v4.4.0 ('Die Wiederkehr') built on Oct 31 2010 21:52:48
Writing library                  : libebml v1.0.0 + libmatroska v1.0.0

Video
ID                              : 1
Format                          : AVC
Format/Info                      : Advanced Video Codec
Format profile                  : High@L4.1
Format settings, CABAC          : Yes
Format settings, ReFrames        : 8 frames
Codec ID                        : V_MPEG4/ISO/AVC
Duration                        : 1h 53mn
Bit rate                        : 3 053 Kbps
Width                            : 1 280 pixels
Height                          : 688 pixels
Display aspect ratio            : 1.860
Frame rate                      : 23.976 fps
Color space                      : YUV
Chroma subsampling              : 4:2:0
Bit depth                        : 8 bits
Scan type                        : Progressive
Bits/(Pixel*Frame)              : 0.145
Stream size                      : 2.36 GiB (73%)
Title                            : m720p-movie.net
Writing library                  : x264 core 105 r1724 b02df7b
Encoding settings                : cabac=1 / ref=8 / deblock=1:0:0 / analyse=0x3:0x133 / me=umh / subme=9 / psy=1 / psy_rd=1.00:0.00 / mixed_ref=1 / me_range=16 / chroma_me=1 / trellis=2 / 8x8dct=1 / cqm=0 / deadzone=21,11 / fast_pskip=1 / chroma_qp_offset=-2 / threads=3 / sliced_threads=0 / nr=0 / decimate=1 / interlaced=0 / constrained_intra=0 / bframes=3 / b_pyramid=2 / b_adapt=2 / b_bias=0 / direct=3 / weightb=1 / open_gop=0 / weightp=2 / keyint=250 / keyint_min=23 / scenecut=40 / intra_refresh=0 / rc_lookahead=60 / rc=2pass / mbtree=1 / bitrate=3053 / ratetol=1.0 / qcomp=0.60 / qpmin=10 / qpmax=51 / qpstep=4 / cplxblur=20.0 / qblur=0.5 / ip_ratio=1.40 / aq=1:1.00

Audio #1
ID                              : 2
Format                          : AC-3
Format/Info                      : Audio Coding 3
Mode extension                  : CM (complete main)
Codec ID                        : A_AC3
Duration                        : 1h 53mn
Bit rate mode                    : Constant
Bit rate                        : 384 Kbps
Channel(s)                      : 6 channels
Channel positions                : Front: L C R, Side: L R, LFE
Sampling rate                    : 48.0 KHz
Bit depth                        : 16 bits
Compression mode                : Lossy
Stream size                      : 313 MiB (9%)
Title                            : DD 5.1 ENG
Language                        : English

Audio #2
ID                              : 3
Format                          : AC-3
Format/Info                      : Audio Coding 3
Mode extension                  : CM (complete main)
Codec ID                        : A_AC3
Duration                        : 1h 53mn
Bit rate mode                    : Constant
Bit rate                        : 640 Kbps
Channel(s)                      : 6 channels
Channel positions                : Front: L C R, Side: L R, LFE
Sampling rate                    : 48.0 KHz
Bit depth                        : 16 bits
Compression mode                : Lossy
Stream size                      : 521 MiB (16%)
Title                            : DD 5.1 CZ
Language                        : Czech

Text
ID                              : 4
Format                          : UTF-8
Codec ID                        : S_TEXT/UTF8
Codec ID/Info                    : UTF-8 Plain Text
Title                            : CZ
Language                        : Czech

DOWNLOAD:

hellshare

kód:
http://download.hellshare.sk/taxikar-1976-part1-rar/3652877
http://download.hellshare.sk/taxikar-1976-part2-rar/3652917
http://download.hellshare.sk/taxikar-1976-part3-rar/3652933
http://download.hellshare.sk/taxikar-1976-part4-rar/3652942
http://download.hellshare.sk/taxikar-1976-part5-rar/3652957

PASS:no
Návrat hore Goto down
Zobrazit informácie o autorovi http://warnerfilm.forumn.org
 
Taxikář / Taxi Driver (1976)
Zobraziť predchádzajúcu tému Zobraziť nasledujúcu tému Návrat hore 
Strana 1 z 1

Povolenie tohoto fóra:Nemôžete odpovedať na témy v tomto fóre.
Vsetko zadarmo :: .::Download filmy::. :: .::Filmy s ceskym a slovenskym dabingom::.-
Prejdi na: