Vsetko zadarmo

Vsetko zadarmo
 
DomovFAQHľadaťRegistráciaZoznam užívateľovUžívateľské skupinyPrihlásenie

Share | 
 

 Spider-Man 2 / Spider-Man 2 (2004) HD

Zobraziť predchádzajúcu tému Zobraziť nasledujúcu tému Goto down 
AutorSpráva
aismen
Mega Uploader
Mega Uploader


Počet príspevkov : 703
Registration date : 16.04.2008

OdoslaťPredmet: Spider-Man 2 / Spider-Man 2 (2004) HD   Št september 22, 2011 8:09 pm

Spider-Man 2
Spider-Man 2
Spider-Man 2.1
Spider-Man 2


Dobrodružný / Sci-Fi / Akční / Thriller
USA, 2004, 122 min (SE: 135 min)

http://www.csfd.cz/film/116933-spider-man-2/

Režie:Sam Raimi
Hudba:Danny Elfman
Hrají:Tobey Maguire, Kirsten Dunst, James Franco, Alfred Molina, Rosemary Harris, J. K. Simmons, Donna Murphy, Daniel Gillies, Dylan Baker, Bill Nunn, Willem Dafoe, Cliff Robertson, Ted Raimi, Elizabeth Banks, Bruce Campbell, Aasif Mandvi, Elya Baskin, Mageina Tovah, Daniel Dae Kim, Joel McHale, Stan Lee, Brent Briscoe, Emily Deschanel, Scott Spiegel, John Landis, Phil LaMarr, Sam Raimi, Vanessa Ferlito, Reed Diamond, Brianna Brown, Joanne Baron, Bonnie Somerville, Joy Bryant, Halla, Spencer List, Marc John Jefferies, Garrett Warren, Hal Sparks

Od chvíle, kdy se Peter Parker (TOBEY MAGUIRE) rozhodl opustit svou dlouholetou lásku Mary Jane Watson (KIRSTEN DUNST), aby se mohl v kostýmu Spider-Mana i nadále zodpovědně věnovat svému povolání superhrdiny, uplynuly dva roky. Jeho touha po milované M.J. se ale postupem času stala ještě silnější a proto si nyní pohrává s myšlenkou, že by se tajného života superhrdiny na důkaz své lásky vzdal. M.J. se však mezitím rozhodla jít dál vydala se na dráhu filmové herečky a v jejím životě figuruje nový muž.

INFO:
kód:
Format                          : Matroska
Format version                  : Version 2
File size                        : 4.91 GiB
Duration                        : 2h 2mn
Overall bit rate                : 5 758 Kbps
Movie name                      : Spider-man 2
Encoded date                    : UTC 2009-07-26 14:27:35
Writing application              : mkvmerge v2.9.7 ('Tenderness') built on Jul  1 2009 18:43:35
Writing library                  : libebml v0.7.7 + libmatroska v0.8.1

Video
ID                              : 1
Format                          : AVC
Format/Info                      : Advanced Video Codec
Format profile                  : High@L5.1
Format settings, CABAC          : Yes
Format settings, ReFrames        : 8 frames
Codec ID                        : V_MPEG4/ISO/AVC
Duration                        : 2h 2mn
Bit rate                        : 4 732 Kbps
Width                            : 1 280 pixels
Height                          : 544 pixels
Display aspect ratio            : 2.35:1
Frame rate                      : 25.000 fps
Color space                      : YUV
Chroma subsampling              : 4:2:0
Bit depth                        : 8 bits
Scan type                        : Progressive
Bits/(Pixel*Frame)              : 0.272
Stream size                      : 3.94 GiB (80%)
Title                            : Spider-man 2
Writing library                  : x264 core 54 svn-598M
Encoding settings                : cabac=1 / ref=5 / deblock=1:-3:-4 / analyse=0x3:0x133 / me=umh / subme=6 / brdo=1 / mixed_ref=1 / me_range=16 / chroma_me=1 / trellis=1 / 8x8dct=1 / cqm=2 / deadzone=21,11 / chroma_qp_offset=0 / slices=2 / nr=0 / decimate=1 / mbaff=0 / bframes=3 / b_pyramid=1 / b_adapt=1 / b_bias=0 / direct=1 / wpredb=1 / bime=1 / keyint=250 / keyint_min=25 / scenecut=40 / rc=2pass / bitrate=4732 / ratetol=1.0 / rceq='blurCplx^(1-qComp)' / qcomp=0.60 / qpmin=10 / qpmax=51 / qpstep=4 / cplxblur=20.0 / qblur=0.5 / ip_ratio=1.40 / pb_ratio=1.30
Language                        : English

Audio #1
ID                              : 2
Format                          : AC-3
Format/Info                      : Audio Coding 3
Mode extension                  : CM (complete main)
Codec ID                        : A_AC3
Duration                        : 2h 2mn
Bit rate mode                    : Constant
Bit rate                        : 384 Kbps
Channel(s)                      : 6 channels
Channel positions                : Front: L C R, Side: L R, LFE
Sampling rate                    : 48.0 KHz
Bit depth                        : 16 bits
Compression mode                : Lossy
Stream size                      : 336 MiB (7%)
Title                            : English
Language                        : English

Audio #2
ID                              : 3
Format                          : AC-3
Format/Info                      : Audio Coding 3
Mode extension                  : CM (complete main)
Codec ID                        : A_AC3
Duration                        : 2h 2mn
Bit rate mode                    : Constant
Bit rate                        : 640 Kbps
Channel(s)                      : 6 channels
Channel positions                : Front: L C R, Side: L R, LFE
Sampling rate                    : 48.0 KHz
Bit depth                        : 16 bits
Compression mode                : Lossy
Delay relative to video          : 20ms
Stream size                      : 559 MiB (11%)
Title                            : Český
Language                        : Czech

Text #1
ID                              : 4
Format                          : UTF-8
Codec ID                        : S_TEXT/UTF8
Codec ID/Info                    : UTF-8 Plain Text
Title                            : English
Language                        : English

Text #2
ID                              : 5
Format                          : UTF-8
Codec ID                        : S_TEXT/UTF8
Codec ID/Info                    : UTF-8 Plain Text
Title                            : České
Language                        : Czech

DOWNLOAD:

hellshare

kód:
http://download.hellshare.sk/spider-man-2-cz-dub-hd-part1-rar/3639002
http://download.hellshare.sk/spider-man-2-cz-dub-hd-part2-rar/3639022
http://download.hellshare.sk/spider-man-2-cz-dub-hd-part3-rar/3639033
http://download.hellshare.sk/spider-man-2-cz-dub-hd-part4-rar/3639050
http://download.hellshare.sk/spider-man-2-cz-dub-hd-part5-rar/3639073
http://download.hellshare.sk/spider-man-2-cz-dub-hd-part6-rar/3639093
http://download.hellshare.sk/spider-man-2-cz-dub-hd-part7-rar/3639113
http://download.hellshare.sk/spider-man-2-cz-dub-hd-part8-rar/3639136

PASS:no
Návrat hore Goto down
Zobrazit informácie o autorovi http://warnerfilm.forumn.org
 
Spider-Man 2 / Spider-Man 2 (2004) HD
Zobraziť predchádzajúcu tému Zobraziť nasledujúcu tému Návrat hore 
Strana 1 z 1

Povolenie tohoto fóra:Nemôžete odpovedať na témy v tomto fóre.
Vsetko zadarmo :: .::Download filmy::. :: .::Filmy s ceskym a slovenskym dabingom::.-
Prejdi na: