Vsetko zadarmo

Vsetko zadarmo
 
DomovFAQHľadaťRegistráciaZoznam užívateľovUžívateľské skupinyPrihlásenie

Share | 
 

 Zookeeper, The/Ošetřovatel(2011) HD

Zobraziť predchádzajúcu tému Zobraziť nasledujúcu tému Goto down 
AutorSpráva
aismen
Mega Uploader
Mega Uploader


Počet príspevkov : 703
Registration date : 16.04.2008

OdoslaťPredmet: Zookeeper, The/Ošetřovatel(2011) HD   Št september 22, 2011 7:49 pm

Zoošetrovateľ
Zookeeper, The
Ošetřovatel


Komedie / Rodinný / Romantický
USA, 2011, 104 min

http://www.csfd.cz/film/269228-osetrovatel/

Režie:Frank Coraci
Hudba:Rupert Gregson-Williams
Hrají:Kevin James, Adam Sandler, Sylvester Stallone, Jon Favreau, Rosario Dawson, Ken Jeong, Leslie Bibb, Donnie Wahlberg, Faizon Love, Judd Apatow, Cher, Thomas Gottschalk, Joe Rogan, Billy Silvia, Americo Presciutti, Dan Marshall

Zvířata ve Franklin Park Zoo zbožňují svého laskavého ošetřovatele Griffina Keyese (Kevin James). Griffin, kterému je příjemněji ve společnosti lva než ve společnosti ženy, usoudí, že jedinou jeho možností, jak najít dívku svých snů, je odejít ze zoo a najít si zajímavější práci. Zvířata se v záchvatu paniky rozhodnou porušit svá prastará pravidla mlčení a odhalí své největší tajemství: umí mluvit! Aby Griffina přiměla zůstat, rozhodnou se mu udělit lekce seznamování a dvoření – ve zvířecím stylu.

INFO:
kód:
Format                          : Matroska
Format version                  : Version 2
File size                        : 4.37 GiB
Duration                        : 1h 41mn
Overall bit rate                : 6 136 Kbps
Encoded date                    : UTC 2011-09-19 06:04:51
Writing application              : mkvmerge v4.9.1 ('Ich will') built on Jul 11 2011 23:53:15
Writing library                  : libebml v1.2.1 + libmatroska v1.1.1

Video
ID                              : 1
Format                          : AVC
Format/Info                      : Advanced Video Codec
Format profile                  : High@L4.1
Format settings, CABAC          : Yes
Format settings, ReFrames        : 12 frames
Codec ID                        : V_MPEG4/ISO/AVC
Duration                        : 1h 41mn
Bit rate                        : 4 624 Kbps
Width                            : 1 280 pixels
Height                          : 534 pixels
Display aspect ratio            : 2.40:1
Frame rate                      : 23.976 fps
Color space                      : YUV
Chroma subsampling              : 4:2:0
Bit depth                        : 8 bits
Scan type                        : Progressive
Bits/(Pixel*Frame)              : 0.282
Stream size                      : 3.21 GiB (73%)
Title                            : Zookeeper.2011.BluRay.720p.DTS.x264-CHD
Writing library                  : x264 core 102 r1666 d058f37
Encoding settings                : cabac=1 / ref=12 / deblock=1:-3:-3 / analyse=0x3:0x113 / me=umh / subme=10 / psy=1 / psy_rd=1.05:0.10 / mixed_ref=1 / me_range=32 / chroma_me=1 / trellis=2 / 8x8dct=1 / cqm=2 / deadzone=21,11 / fast_pskip=0 / chroma_qp_offset=-2 / threads=6 / sliced_threads=0 / nr=0 / decimate=1 / interlaced=0 / constrained_intra=0 / bframes=6 / b_pyramid=2 / b_adapt=2 / b_bias=0 / direct=3 / weightb=1 / open_gop=0 / weightp=2 / keyint=250 / keyint_min=25 / scenecut=40 / intra_refresh=0 / rc_lookahead=40 / rc=2pass / mbtree=1 / bitrate=4624 / ratetol=1.0 / qcomp=0.60 / qpmin=10 / qpmax=51 / qpstep=4 / cplxblur=20.0 / qblur=0.5 / vbv_maxrate=50000 / vbv_bufsize=50000 / ip_ratio=1.40 / aq=1:0.80 / nal_hrd=none
Language                        : English

Audio
ID                              : 2
Format                          : DTS
Format/Info                      : Digital Theater Systems
Codec ID                        : A_DTS
Duration                        : 1h 41mn
Bit rate mode                    : Constant
Bit rate                        : 1 510 Kbps
Channel(s)                      : 6 channels
Channel positions                : Front: L C R, Side: L R, LFE
Sampling rate                    : 48.0 KHz
Bit depth                        : 24 bits
Compression mode                : Lossy
Stream size                      : 1.07 GiB (25%)
Title                            : Zookeeper.2011.DTS-HD.MA Core_1509kbps
Language                        : English

Text
ID                              : 3
Format                          : UTF-8
Codec ID                        : S_TEXT/UTF8
Codec ID/Info                    : UTF-8 Plain Text
Language                        : Czech

DOWNLOAD:

hellshare

kód:
http://download.hellshare.sk/zookeeper-2011-bluray-720p-dts-x264-chd-part1-rar/3639264
http://download.hellshare.sk/zookeeper-2011-bluray-720p-dts-x264-chd-part2-rar/3639276
http://download.hellshare.sk/zookeeper-2011-bluray-720p-dts-x264-chd-part3-rar/3639298
http://download.hellshare.sk/zookeeper-2011-bluray-720p-dts-x264-chd-part4-rar/3639314
http://download.hellshare.sk/zookeeper-2011-bluray-720p-dts-x264-chd-part5-rar/3639324
http://download.hellshare.sk/zookeeper-2011-bluray-720p-dts-x264-chd-part6-rar/3639341
http://download.hellshare.sk/zookeeper-2011-bluray-720p-dts-x264-chd-part7-rar/3639360

PASS:no
Návrat hore Goto down
Zobrazit informácie o autorovi http://warnerfilm.forumn.org
 
Zookeeper, The/Ošetřovatel(2011) HD
Zobraziť predchádzajúcu tému Zobraziť nasledujúcu tému Návrat hore 
Strana 1 z 1

Povolenie tohoto fóra:Nemôžete odpovedať na témy v tomto fóre.
Vsetko zadarmo :: .::Download filmy::. :: .::Filmy s ceskymi a slovenskymi titulkami::.-
Prejdi na: