Vsetko zadarmo

Vsetko zadarmo
 
DomovFAQHľadaťRegistráciaZoznam užívateľovUžívateľské skupinyPrihlásenie

Share | 
 

 Predátor II / Predator 2 (1990)

Zobraziť predchádzajúcu tému Zobraziť nasledujúcu tému Goto down 
AutorSpráva
aismen
Mega Uploader
Mega Uploader


Počet príspevkov : 703
Registration date : 16.04.2008

OdoslaťPredmet: Predátor II / Predator 2 (1990)   Št september 22, 2011 7:34 pm

Predátor 2
Predator 2
Predátor II


Akční / Sci-Fi / Thriller / Horor
USA, 1990, 104 min



Režie:Stephen Hopkins
Hudba:Alan Silvestri
Hrají:Kevin Peter Hall, Danny Glover, Gary Busey, Rubén Blades, Maria Conchita Alonso, Bill Paxton, Robert Davi, Adam Baldwin, Calvin Lockhart, Elpidia Carrillo, Lilyan Chauvin, Michael Papajohn, Abraham Alvarez, Jsu Garcia, Paul Abascal

Přichází ze vzdáleného světa, aby lovil lidi pro zábavu. Neviditelný a ozbrojený speciálními ničícími zbraněmi - nic, co bychom znali - nemilosrdně stopuje svou lidskou kořist zanechávajíc za sebou zmrzačené mrtvoly. Posledně přistál v džungli a nyní si vybral Los Angeles. Los Angeles, kde právě probíhá válka drogových gangů, je perfektní půdou pro predátorovy smrtící hrátky. Když policie nachází zmrzačená těla, poručík Mike Harrigan si myslí, že je to práce znepřátelených gangů...

INFO:
kód:
Format                          : AVI
Format/Info                      : Audio Video Interleave
File size                        : 700 MiB
Duration                        : 1h 43mn
Overall bit rate                : 945 Kbps
Writing application              : VirtualDubMod 1.5.4.1 (build 2178/release)
Writing library                  : VirtualDubMod build 2178/release

Video
ID                              : 0
Format                          : MPEG-4 Visual
Format profile                  : Advanced Simple@L5
Format settings, BVOP            : 1
Format settings, QPel            : No
Format settings, GMC            : No warppoints
Format settings, Matrix          : Custom
Codec ID                        : XVID
Codec ID/Hint                    : XviD
Duration                        : 1h 43mn
Bit rate                        : 812 Kbps
Width                            : 608 pixels
Height                          : 336 pixels
Display aspect ratio            : 16:9
Frame rate                      : 25.000 fps
Color space                      : YUV
Chroma subsampling              : 4:2:0
Bit depth                        : 8 bits
Scan type                        : Progressive
Compression mode                : Lossy
Bits/(Pixel*Frame)              : 0.159
Stream size                      : 602 MiB (86%)
Writing library                  : XviD 1.1.0 (UTC 2005-11-22)

Audio
ID                              : 1
Format                          : MPEG Audio
Format version                  : Version 1
Format profile                  : Layer 3
Mode                            : Joint stereo
Mode extension                  : MS Stereo
Codec ID                        : 55
Codec ID/Hint                    : MP3
Duration                        : 1h 43mn
Bit rate mode                    : Variable
Bit rate                        : 119 Kbps
Nominal bit rate                : 128 Kbps
Channel(s)                      : 2 channels
Sampling rate                    : 48.0 KHz
Compression mode                : Lossy
Stream size                      : 88.5 MiB (13%)
Alignment                        : Aligned on interleaves
Interleave, duration            : 24 ms (0.60 video frame)
Interleave, preload duration    : 154 ms
Writing library                  : LAME3.97b
Encoding settings                : -m j -V 4 -q 2 -lowpass 17 --abr 128
Language                        : Czech

DOWNLOAD:

hellshare

kód:
http://download.hellshare.sk/predator-2-1990-akcni-cesky-dabing-avi/3638911

PASS:no
Návrat hore Goto down
Zobrazit informácie o autorovi http://warnerfilm.forumn.org
 
Predátor II / Predator 2 (1990)
Zobraziť predchádzajúcu tému Zobraziť nasledujúcu tému Návrat hore 
Strana 1 z 1

Povolenie tohoto fóra:Nemôžete odpovedať na témy v tomto fóre.
Vsetko zadarmo :: .::Download filmy::. :: .::Filmy s ceskym a slovenskym dabingom::.-
Prejdi na: