Vsetko zadarmo

Vsetko zadarmo
 
DomovFAQHľadaťRegistráciaZoznam užívateľovUžívateľské skupinyPrihlásenie

Share | 
 

 Predátor / Predator (1987)

Zobraziť predchádzajúcu tému Zobraziť nasledujúcu tému Goto down 
AutorSpráva
aismen
Mega Uploader
Mega Uploader


Počet príspevkov : 703
Registration date : 16.04.2008

OdoslaťPredmet: Predátor / Predator (1987)   Št september 22, 2011 7:27 pm

Predátor
Predator
Predátor


Akční / Horor / Sci-Fi / Thriller
USA, 1987, 102 min

http://www.csfd.cz/film/6648-predator/

Režie:John McTiernan
Hudba:Alan Silvestri
Hrají:Arnold Schwarzenegger, Carl Weathers, Elpidia Carrillo, Bill Duke, Jesse Ventura, Sonny Landham, Richard Chaves, R. G. Armstrong, Shane Black, Kevin Peter Hall, Sven-Ole Thorsen

V džungli přistane kosmická loď, na jejíž palubě je dokonale vybavený mimozemský nimrod. Lovnou zvěří se pro něj stávají nejen dravci obývající džungli, ale také lidé. To je prolog slavného filmu, který je oblíbenou žánrovou kombinací akčních příběhů o amerických komandos, hororu a SF. Oddíl pod vedením zkušeného majora Dutche Schaefera je vysazen na nepřátelském území, kde má uprostřed džungle vysvobodit několik amerických vojáků ze zajetí partyzánů. Po úspěšně provedené akci se však američtí vojáci musí utkat s daleko tajemnějším a nebezpečnějším nepřítelem. Džungle se mění v past, z níž není úniku a američtí hrdinové poprvé v životě poznávají, co je to strach. Film, který dnes již bývá řazen ke klasice žánru, zaujme především napětím a houstnoucí atmosférou strachu, kdy jsou američtí supermani pomalu vyváděni z rutinní statečnosti a rovnováhy. Stejně zdařilé je i pojetí mimozemšťana, neostré, děsivě tajuplné postavy, využívající dokonalé mimikry, jehož přítomnost signalizuje pouze termografie jeho pohledu. Teprve v závěrečné scéně se na scéně objevují v celé hrůznosti dokonalé masky Stana Winstona.

INFO:
kód:
Format                          : AVI
Format/Info                      : Audio Video Interleave
File size                        : 700 MiB
Duration                        : 1h 42mn
Overall bit rate                : 957 Kbps
Writing application              : VirtualDubMod 1.5.10.2 (build 2540/release)
Writing library                  : VirtualDubMod build 2540/release

Video
ID                              : 0
Format                          : MPEG-4 Visual
Format profile                  : Advanced Simple@L5
Format settings, BVOP            : 1
Format settings, QPel            : No
Format settings, GMC            : No warppoints
Format settings, Matrix          : Default (H.263)
Codec ID                        : XVID
Codec ID/Hint                    : XviD
Duration                        : 1h 42mn
Bit rate                        : 819 Kbps
Width                            : 576 pixels
Height                          : 304 pixels
Display aspect ratio            : 1.895
Frame rate                      : 25.000 fps
Color space                      : YUV
Chroma subsampling              : 4:2:0
Bit depth                        : 8 bits
Scan type                        : Progressive
Compression mode                : Lossy
Bits/(Pixel*Frame)              : 0.187
Stream size                      : 599 MiB (86%)
Writing library                  : XviD 1.1.0 (UTC 2005-11-22)

Audio
ID                              : 1
Format                          : MPEG Audio
Format version                  : Version 1
Format profile                  : Layer 3
Mode                            : Joint stereo
Mode extension                  : MS Stereo
Codec ID                        : 55
Codec ID/Hint                    : MP3
Duration                        : 1h 42mn
Bit rate mode                    : Variable
Bit rate                        : 128 Kbps
Channel(s)                      : 2 channels
Sampling rate                    : 48.0 KHz
Compression mode                : Lossy
Stream size                      : 91.5 MiB (13%)
Alignment                        : Aligned on interleaves
Interleave, duration            : 24 ms (0.60 video frame)
Interleave, preload duration    : 147 ms
Writing library                  : LAME3.90.

DOWNLOAD:

hellshare

kód:
http://download.hellshare.sk/predator-1-1987-akcni-cesky-dabing-avi/3638891

PASS:no
Návrat hore Goto down
Zobrazit informácie o autorovi http://warnerfilm.forumn.org
 
Predátor / Predator (1987)
Zobraziť predchádzajúcu tému Zobraziť nasledujúcu tému Návrat hore 
Strana 1 z 1

Povolenie tohoto fóra:Nemôžete odpovedať na témy v tomto fóre.
Vsetko zadarmo :: .::Download filmy::. :: .::Filmy s ceskym a slovenskym dabingom::.-
Prejdi na: