Vsetko zadarmo

Vsetko zadarmo
 
DomovFAQHľadaťRegistráciaZoznam užívateľovUžívateľské skupinyPrihlásenie

Share | 
 

 Mafia 2 Movie(2010)

Zobraziť predchádzajúcu tému Zobraziť nasledujúcu tému Goto down 
AutorSpráva
aismen
Mega Uploader
Mega Uploader


Počet príspevkov : 703
Registration date : 16.04.2008

OdoslaťPredmet: Mafia 2 Movie(2010)   Št september 22, 2011 7:20 pm

Mafia 2 Movie

INFO:
kód:
Format                          : Matroska
Format version                  : Version 2
File size                        : 925 MiB
Duration                        : 2h 26mn
Overall bit rate                : 880 Kbps
Writing application              : Lavf51.12.1
Writing library                  : Lavf51.12.1

Video
ID                              : 1
Format                          : AVC
Format/Info                      : Advanced Video Codec
Format profile                  : Baseline@L1.3
Format settings, CABAC          : No
Format settings, ReFrames        : 1 frame
Format settings, GOP            : M=1, N=12
Codec ID                        : V_MPEG4/ISO/AVC
Duration                        : 2h 26mn
Bit rate                        : 543 Kbps
Width                            : 720 pixels
Height                          : 406 pixels
Display aspect ratio            : 16:9
Frame rate                      : 30.000 fps
Color space                      : YUV
Chroma subsampling              : 4:2:0
Bit depth                        : 8 bits
Scan type                        : Progressive
Bits/(Pixel*Frame)              : 0.062
Stream size                      : 570 MiB (62%)
Language                        : English / English

Audio
ID                              : 2
Format                          : MPEG Audio
Format version                  : Version 1
Format profile                  : Layer 3
Mode                            : Joint stereo
Codec ID                        : A_MPEG/L3
Codec ID/Hint                    : MP3
Duration                        : 2h 26mn
Bit rate mode                    : Constant
Bit rate                        : 320 Kbps
Channel(s)                      : 2 channels
Sampling rate                    : 44.1 KHz
Compression mode                : Lossy
Stream size                      : 336 MiB (36%)
Writing library                  : LAME3.97
Language                        : English / English

DOWNLOAD:

hellshare

kód:
http://download.hellshare.sk/mafia-2-movie-mkv/3638922

PASS:no
Návrat hore Goto down
Zobrazit informácie o autorovi http://warnerfilm.forumn.org
 
Mafia 2 Movie(2010)
Zobraziť predchádzajúcu tému Zobraziť nasledujúcu tému Návrat hore 
Strana 1 z 1

Povolenie tohoto fóra:Nemôžete odpovedať na témy v tomto fóre.
Vsetko zadarmo :: .::Download filmy::. :: .::Filmy s ceskym a slovenskym dabingom::.-
Prejdi na: