Vsetko zadarmo

Vsetko zadarmo
 
DomovFAQHľadaťRegistráciaZoznam užívateľovUžívateľské skupinyPrihlásenie

Share | 
 

 Toy Story: Příběh hraček 3 / Toy Story 3 (2010)

Zobraziť predchádzajúcu tému Zobraziť nasledujúcu tému Goto down 
AutorSpráva
aismen
Mega Uploader
Mega Uploader


Počet príspevkov : 703
Registration date : 16.04.2008

OdoslaťPredmet: Toy Story: Příběh hraček 3 / Toy Story 3 (2010)   Št september 22, 2011 5:37 pm

Toy Story 3: Príbeh hračiek
Toy Story 3
Toy Story 3: Příběh hraček


Animovaný / Dobrodružný / Komedie / Rodinný
USA, 2010, 99 min

http://www.csfd.cz/film/229387-toy-story-3-pribeh-hracek/

Režie:Lee Unkrich
Hudba:Randy Newman
Hrají:Tom Hanks, Tim Allen, Joan Cusack, Michael Keaton, Ned Beatty, Wallace Shawn, Don Rickles, Whoopi Goldberg, Jeff Garlin, R. Lee Ermey, Laurie Metcalf, Bonnie Hunt, Kristen Schaal, Jodi Benson, Timothy Dalton, Teddy Newton, Erik von Detten, Blake Clark, Beatrice Miller

Ve filmu TOY STORY 3: PŘÍBĚH HRAČEK se tvůrci milované série příběhů o hračkách „Toy Story“ vrací do kouzelného světa nám dobře známých hraček. Chlapec Andy už vyrostl a chystá se na vysokou školu. Buzze, Woodyho a zbytek hraček tak čeká nejistá budoucnost. TOY STORY 3: PŘÍBĚH HRAČEK je zbrusu nová dobrodružná komedie, ve které se naši staří známí hrdinové dostanou do školky plné rozjívených dětí a batolat. Obzvláště nezkrotná batolata se už nemohou dočkat, až dostanou tyhle „nové“ hračky do svých malých, upatlaných ručiček. Přestože naše hrdiny čeká nejedna horká chvilka, dobře ví, že nesmí jeden druhého zradit a že se musí pohromadě. A k tomu všemu čeká panenku Barbie první osudové setkání s Kenem.

INFO:
kód:
Format                          : AVI
Format/Info                      : Audio Video Interleave
File size                        : 700 MiB
Duration                        : 1h 42mn
Overall bit rate                : 955 Kbps

Video
ID                              : 0
Format                          : MPEG-4 Visual
Format profile                  : Advanced Simple@L5
Format settings, BVOP            : 2
Format settings, QPel            : No
Format settings, GMC            : No warppoints
Format settings, Matrix          : Default (H.263)
Codec ID                        : DX50
Codec ID/Hint                    : DivX 5
Duration                        : 1h 41mn
Bit rate                        : 831 Kbps
Width                            : 608 pixels
Height                          : 336 pixels
Display aspect ratio            : 16:9
Frame rate                      : 23.976 fps
Color space                      : YUV
Chroma subsampling              : 4:2:0
Bit depth                        : 8 bits
Scan type                        : Progressive
Compression mode                : Lossy
Bits/(Pixel*Frame)              : 0.170
Stream size                      : 601 MiB (86%)
Writing library                  : XviD 1.2.1 (UTC 2008-12-04)

Audio
ID                              : 1
Format                          : MPEG Audio
Format version                  : Version 1
Format profile                  : Layer 3
Mode                            : Joint stereo
Mode extension                  : MS Stereo
Codec ID                        : 55
Codec ID/Hint                    : MP3
Duration                        : 1h 42mn
Bit rate mode                    : Constant
Bit rate                        : 128 Kbps
Channel(s)                      : 2 channels
Sampling rate                    : 48.0 KHz
Compression mode                : Lossy
Stream size                      : 92.5 MiB (13%)
Alignment                        : Aligned on interleaves
Interleave, duration            : 42 ms (1.00 video frame)
Writing library                  : LAME3.98 (beta)

DOWNLOAD:

hellshare

kód:
http://download.hellshare.sk/toy-story-3-2010-cz-avi/3638968

PASS:no
Návrat hore Goto down
Zobrazit informácie o autorovi http://warnerfilm.forumn.org
 
Toy Story: Příběh hraček 3 / Toy Story 3 (2010)
Zobraziť predchádzajúcu tému Zobraziť nasledujúcu tému Návrat hore 
Strana 1 z 1

Povolenie tohoto fóra:Nemôžete odpovedať na témy v tomto fóre.
Vsetko zadarmo :: .::Download filmy::. :: .::Filmy s ceskym a slovenskym dabingom::.-
Prejdi na: