Vsetko zadarmo

Vsetko zadarmo
 
DomovFAQHľadaťRegistráciaZoznam užívateľovUžívateľské skupinyPrihlásenie

Share | 
 

 Veselý prachy / Funny Money (2006)

Zobraziť predchádzajúcu tému Zobraziť nasledujúcu tému Goto down 
AutorSpráva
aismen
Mega Uploader
Mega Uploader


Počet príspevkov : 703
Registration date : 16.04.2008

OdoslaťPredmet: Veselý prachy / Funny Money (2006)   Št september 22, 2011 5:24 pm

Funny Money
Veselý prachy
Veselé prachy


Komedie
Německo / USA / Rumunsko, 2006, 98 min

http://www.csfd.cz/film/232072-vesely-prachy/

Režie:Leslie Greif
Hrají:Chevy Chase, Penelope Ann Miller, Armand Assante, Christopher McDonald, Robert Loggia, Guy Torry, Ovidiu Niculescu, Zoltan Butuc, Timothy Stack

Život Henryho Perkinse (Chevy Chase) je jeden velký stereotyp. Každý den má k obědu stejné jídlo, každý den v tu samou hodinu (na minutu přesně) si dává koblihu, každý rok chce k narozeninám stejný dárek. Pro všechny své známe platí za předvídatelného chlapíka. Až do dneška, kdy si omylem vyměnil svůj kufřík s cestujícím v metru. V kufříku se totiž skrývá 5 milionů dolarů, které změní Henryho ve spontánního dobrodruha. Okamžitě chce odjet do Řecka, Barcelony, nebo vlastně kamkoliv, kde ho nenajde pravý majitel peněz. Jenže to nebude tak jednoduché. Henryho manželka tím totiž není vůbec nadšená a hlavně, zkuste nenápadně odjet, když máte v domě dva policisty, spoustu hostů, kteří přišli na narozeninovou párty a samozřejmě nechybí ani banda, které patří oněch 5 milionů.

INFO:
kód:
Format                          : AVI
Format/Info                      : Audio Video Interleave
File size                        : 704 MiB
Duration                        : 1h 32mn
Overall bit rate                : 1 061 Kbps
Writing application              : VirtualDubMod 1.5.4.1 (build 2178/release)
Writing library                  : VirtualDubMod build 2178/release

Video
ID                              : 0
Format                          : MPEG-4 Visual
Format profile                  : Advanced Simple@L5
Format settings, BVOP            : 2
Format settings, QPel            : No
Format settings, GMC            : No warppoints
Format settings, Matrix          : Default (H.263)
Codec ID                        : XVID
Codec ID/Hint                    : XviD
Duration                        : 1h 32mn
Bit rate                        : 918 Kbps
Width                            : 624 pixels
Height                          : 352 pixels
Display aspect ratio            : 16:9
Frame rate                      : 25.000 fps
Color space                      : YUV
Chroma subsampling              : 4:2:0
Bit depth                        : 8 bits
Scan type                        : Progressive
Compression mode                : Lossy
Bits/(Pixel*Frame)              : 0.167
Stream size                      : 609 MiB (87%)
Writing library                  : XviD 1.1.2 (UTC 2006-11-01)

Audio
ID                              : 1
Format                          : MPEG Audio
Format version                  : Version 1
Format profile                  : Layer 3
Mode                            : Joint stereo
Codec ID                        : 55
Codec ID/Hint                    : MP3
Duration                        : 1h 32mn
Bit rate mode                    : Variable
Bit rate                        : 128 Kbps
Channel(s)                      : 2 channels
Sampling rate                    : 48.0 KHz
Compression mode                : Lossy
Delay relative to video          : 528ms
Stream size                      : 86.2 MiB (12%)
Alignment                        : Split accross interleaves
Interleave, duration            : 24 ms (0.60 video frame)
Interleave, preload duration    : 1490 ms
Writing library                  : LAME3.90.

DOWNLOAD:

hellshare

kód:
http://download.hellshare.sk/vesely-prachy-2006-cz-avi/3638986

PASS:no
Návrat hore Goto down
Zobrazit informácie o autorovi http://warnerfilm.forumn.org
 
Veselý prachy / Funny Money (2006)
Zobraziť predchádzajúcu tému Zobraziť nasledujúcu tému Návrat hore 
Strana 1 z 1

Povolenie tohoto fóra:Nemôžete odpovedať na témy v tomto fóre.
Vsetko zadarmo :: .::Download filmy::. :: .::Filmy s ceskym a slovenskym dabingom::.-
Prejdi na: