Vsetko zadarmo

Vsetko zadarmo
 
DomovFAQHľadaťRegistráciaZoznam užívateľovUžívateľské skupinyPrihlásenie

Share | 
 

 Thor (2011) HD

Zobraziť predchádzajúcu tému Zobraziť nasledujúcu tému Goto down 
AutorSpráva
aismen
Mega Uploader
Mega Uploader


Počet príspevkov : 703
Registration date : 16.04.2008

OdoslaťPredmet: Thor (2011) HD    St september 21, 2011 1:41 pm

Thor
Thor
Thor


HD



Akční / Dobrodružný / Drama / Fantasy
USA, 2011, 114 min

http://www.csfd.cz/film/234300-thor/

Režie:Kenneth Branagh
Hudba:Patrick Doyle
Hrají:Chris Hemsworth, Tom Hiddleston, Anthony Hopkins, Natalie Portman, Colm Feore, Jaimie Alexander, Stellan Skarsgard, Adriana Barraza, Stan Lee, Ray Stevenson, Tadanobu Asano, Idris Elba, Kat Dennings, Rene Russo, Clark Gregg, Cassity Atkins, Samuel L. Jackson, Jeremy Renner, J. Michael Straczynski

Thorovu (Chris Hemsworth) otci, vládci bohů Odinovi (Anthony Hopkins), trvalo spoustu let, než ve své říši nastolil křehký mír. Jeho arogantní a domýšlivý syn ale dělá všechno proto, aby tuhle rovnováhu narušil. Když pohár trpělivosti jeho otce přeteče, Odin Thora exemplárně potrestá. Odebere mu jeho božské schopnosti a svrhne ho mezi obyčejné smrtelníky na planetu Zemi. Svržený a zavržený Thor lidmi zpočátku opovrhuje, postupně se mu ale začnou dostávat pod kůži, zejména sličná vědkyně Jane Foster (Natalie Portman). Thorovi ale není dopřáno užívat si pozemského klidu. Jeho bratr Loki (Tom Hiddleston) chce využít Thorova aktuálního oslabení a pošle na něj armádu všehoschopných pochopů, která v duchu přísloví „Když se kácí les, létají třísky", rozpoutá peklo na Zemi. Boží synek se bude muset rychle rozhodnout, jestli nechá lidi za sebe krvácet, nebo se vzchopí, zvedne kladivo a vyrazí na zteč.


INFO:
kód:
Format                          : Matroska
Format version                  : Version 2
File size                        : 5.97 GiB
Duration                        : 1h 54mn
Overall bit rate                : 7 444 Kbps
Encoded date                    : UTC 2011-09-09 07:37:40
Writing application              : mkvmerge v2.9.9 ('Tutu') built on Nov 25 2009 21:13:32
Writing library                  : libebml v0.7.9 + libmatroska v0.8.1

Video
ID                              : 1
Format                          : AVC
Format/Info                      : Advanced Video Codec
Format profile                  : High@L4.1
Format settings, CABAC          : Yes
Format settings, ReFrames        : 5 frames
Codec ID                        : V_MPEG4/ISO/AVC
Duration                        : 1h 54mn
Bit rate                        : 5 293 Kbps
Width                            : 1 280 pixels
Height                          : 544 pixels
Display aspect ratio            : 2.35:1
Frame rate                      : 23.976 fps
Color space                      : YUV
Chroma subsampling              : 4:2:0
Bit depth                        : 8 bits
Scan type                        : Progressive
Bits/(Pixel*Frame)              : 0.317
Stream size                      : 4.13 GiB (69%)
Writing library                  : x264 core 116 r2074 2641b9e
Encoding settings                : cabac=1 / ref=5 / deblock=1:0:0 / analyse=0x3:0x133 / me=umh / subme=8 / psy=1 / psy_rd=1.00:0.00 / mixed_ref=1 / me_range=16 / chroma_me=1 / trellis=1 / 8x8dct=1 / cqm=0 / deadzone=21,11 / fast_pskip=0 / chroma_qp_offset=-2 / threads=18 / sliced_threads=0 / nr=0 / decimate=1 / interlaced=0 / bluray_compat=0 / constrained_intra=0 / bframes=3 / b_pyramid=2 / b_adapt=1 / b_bias=0 / direct=1 / weightb=1 / open_gop=0 / weightp=2 / keyint=240 / keyint_min=24 / scenecut=40 / intra_refresh=0 / rc_lookahead=40 / rc=2pass / mbtree=1 / bitrate=5293 / ratetol=1.0 / qcomp=0.60 / qpmin=0 / qpmax=69 / qpstep=4 / cplxblur=20.0 / qblur=0.5 / ip_ratio=1.40 / aq=1:1.00
Language                        : English

Audio #1
ID                              : 2
Format                          : DTS
Format/Info                      : Digital Theater Systems
Format profile                  : ES
Codec ID                        : A_DTS
Duration                        : 1h 54mn
Bit rate mode                    : Constant
Bit rate                        : 1 510 Kbps
Channel(s)                      : 6 channels
Channel positions                : Front: L C R, Side: L R, LFE
Sampling rate                    : 48.0 KHz
Bit depth                        : 24 bits
Compression mode                : Lossy
Stream size                      : 1.21 GiB (20%)
Title                            : English
Language                        : English

Audio #2
ID                              : 3
Format                          : AC-3
Format/Info                      : Audio Coding 3
Mode extension                  : CM (complete main)
Codec ID                        : A_AC3
Duration                        : 1h 54mn
Bit rate mode                    : Constant
Bit rate                        : 640 Kbps
Channel(s)                      : 6 channels
Channel positions                : Front: L C R, Side: L R, LFE
Sampling rate                    : 48.0 KHz
Bit depth                        : 16 bits
Compression mode                : Lossy
Stream size                      : 526 MiB (9%)

Text
ID                              : 4
Format                          : UTF-8
Codec ID                        : S_TEXT/UTF8
Codec ID/Info                    : UTF-8 Plain Text

DOWNLOAD:

hellshare

kód:
http://download.hellshare.sk/thor-part01-rar/3631926
http://download.hellshare.sk/thor-part02-rar/3631948
http://download.hellshare.sk/thor-part03-rar/3631966
http://download.hellshare.sk/thor-part04-rar/3631978
http://download.hellshare.sk/thor-part05-rar/3631984
http://download.hellshare.sk/thor-part06-rar/3632003
http://download.hellshare.sk/thor-part07-rar/3632014
http://download.hellshare.sk/thor-part08-rar/3632027
http://download.hellshare.sk/thor-part09-rar/3632041

PASS:no
Návrat hore Goto down
Zobrazit informácie o autorovi http://warnerfilm.forumn.org
 
Thor (2011) HD
Zobraziť predchádzajúcu tému Zobraziť nasledujúcu tému Návrat hore 
Strana 1 z 1

Povolenie tohoto fóra:Nemôžete odpovedať na témy v tomto fóre.
Vsetko zadarmo :: .::Download filmy::. :: .::Filmy s ceskym a slovenskym dabingom::.-
Prejdi na: