Vsetko zadarmo

Vsetko zadarmo
 
DomovFAQHľadaťRegistráciaZoznam užívateľovUžívateľské skupinyPrihlásenie

Share | 
 

 Rychle a zběsile 5 / Fast Five (2011)

Zobraziť predchádzajúcu tému Zobraziť nasledujúcu tému Goto down 
AutorSpráva
aismen
Mega Uploader
Mega Uploader


Počet príspevkov : 703
Registration date : 16.04.2008

OdoslaťPredmet: Rychle a zběsile 5 / Fast Five (2011)   St september 21, 2011 1:19 pm

Rýchlo zbesilo 5
Fast Five
Rychle a zběsile 5









Akční / Krimi / Drama / Thriller
USA, 2011, 130 min

Režie:
Justin Lin

Hudba:
Brian Tyler

Hrají:
Vin Diesel, Paul Walker, Jordana Brewster, Dwayne Johnson, Tyrese Gibson, Elsa Pataky, Gal Gadot, Ludacris, TJ Hassan, Joaquim de Almeida, Matt Schulze, Tego Caldéron, Don Omar, Sung Kang, Alimi Ballard, Geoff Meed, Eva Mendes, Mark Hicks

Nohou zašlapávají pedál plynu do podlahy, jednou rukou řídí a v té druhé
třímají zbraň nebo aspoň ukazují vztyčený prostředník. Jsou prostě
rychlí a zběsilí. Už popáté. Pod vedením režiséra Justina Lina, jenž si
vydobyl ostruhy na předchozích dvou dílech slavné akčně závodní série,
se potkávají všichni staří známí – Paul Walker, Vin Diesel a Jordana
Brewster – které tentokrát doplňuje i akční hvězda první velikosti
Dwayne Johnson.
Česká policie může zůstat v klidu, veškeré silniční
běsnění se bude odehrávat v rozpálených ulicích brazilského Ria. Až sem
utekli před spravedlností notorický zločinec s dobrým srdcem Dom Toretto
(Vin Diesel) a Brian O´Conner (Paul Walker), bývalý polda, který mu
naposled pomohl utéci z vězení. Ne však náhodou. Do města pod obří
Ježíšovou sochou je přivedl plán, na jehož konci na ně čeká vstupenka ke
svobodě. Potíž vězí v tom, že ten plán, v nominální hodnotě 100 miliónů
dolarů, které na ně čekají v sejfu policejní stanice, je naprosto
šílený. Brian a Dom povolají do Ria bývalé parťáky, aby zvýšili své
šance na úspěch, jenže proti nim nestojí jen zkorumpovaný narkobaron a
jeho bojůvka, ale také drsný federální agent Luke Hobbs (Dwayne
Johnson). Hobbs je typ člověka, který bere svou práci smrtelně vážně, a
když dostane nějaký úkol, tak ho vždycky splní. A to je pro oba hrdiny
smrtonosná kombinace. Ještě že mají auta a schopnost dostat z nich
pokaždé to nejlepší.

INFO:

kód:
Format                          : AVI
Format/Info                      : Audio Video Interleave
File size                        : 896 MiB
Duration                        : 2h 10mn
Overall bit rate                : 962 Kbps
Writing application              : VirtualDubMod 1.5.10.2 (build 2540/release)
Writing library                  : VirtualDubMod build 2540/release

ID                              : 0
Format                          : MPEG-4 Visual
Format profile                  : Advanced Simple@L5
Format settings, BVOP            : 2
Format settings, QPel            : No
Format settings, GMC            : No warppoints
Format settings, Matrix          : Default (H.263)
Codec ID                        : XVID
Codec ID/Hint                    : XviD
Duration                        : 2h 10mn
Bit rate                        : 824 Kbps
Width                            : 640 pixels
Height                          : 272 pixels
Display aspect ratio            : 2.35:1
Frame rate                      : 23.976 fps
Color space                      : YUV
Chroma subsampling              : 4:2:0
Bit depth                        : 8 bits
Scan type                        : Progressive
Compression mode                : Lossy
Bits/(Pixel*Frame)              : 0.197
Stream size                      : 768 MiB (86%)
Writing library                  : XviD 1.2.1 (UTC 2008-12-04)

ID                              : 1
Format                          : MPEG Audio
Format version                  : Version 1
Format profile                  : Layer 3
Mode                            : Joint stereo
Codec ID                        : 55
Codec ID/Hint                    : MP3
Duration                        : 2h 10mn
Bit rate mode                    : Constant
Bit rate                        : 128 Kbps
Channel(s)                      : 2 channels
Sampling rate                    : 48.0 KHz
Compression mode                : Lossy
Delay relative to video          : 24ms
Stream size                      : 119 MiB (13%)
Alignment                        : Aligned on interleaves
Interleave, duration            : 42 ms (1.00 video frame)
Interleave, preload duration    : 504 ms

DOWNLOAD:
kód:
http://www.upnito.sk/subor/3fc10ab5e66593ab372ab026754dbcfc.html

kód:
http://download.hellshare.sk/rychlo-a-zbiesilo-5-avi/3465440/
PASS:
NO
Návrat hore Goto down
Zobrazit informácie o autorovi http://warnerfilm.forumn.org
 
Rychle a zběsile 5 / Fast Five (2011)
Zobraziť predchádzajúcu tému Zobraziť nasledujúcu tému Návrat hore 
Strana 1 z 1

Povolenie tohoto fóra:Nemôžete odpovedať na témy v tomto fóre.
Vsetko zadarmo :: .::Download filmy::. :: .::Filmy s ceskym a slovenskym dabingom::.-
Prejdi na: