Vsetko zadarmo

Vsetko zadarmo
 
DomovFAQHľadaťRegistráciaZoznam užívateľovUžívateľské skupinyPrihlásenie

Share | 
 

 Splice (2009)

Zobraziť predchádzajúcu tému Zobraziť nasledujúcu tému Goto down 
AutorSpráva
aismen
Mega Uploader
Mega Uploader


Počet príspevkov : 703
Registration date : 16.04.2008

OdoslaťPredmet: Splice (2009)   Ut september 20, 2011 6:01 pm

Splice
Splice


Drama / Sci-Fi / Thriller / Horor
Kanada / Francie / USA, 2009, 103 min

Režie:Vincenzo Natali
Hrají:Adrien Brody, Sarah Polley, David Hewlett, Delphine Chanéac

http://www.csfd.cz/film/191308-splice/

Genetičtí inženýři Elsa a Clive tajně provedou experiment, jehož výsledkem je kříženec člověka a zvířete. Je to úžasné a podivně krásné stvoření, které by mohlo v moderní medicíně způsobit revoluci, pokud ovšem předtím nezničí lidstvo.
Clive (Adrien Brody) a Elsa (Sarah Polleyová) se specializují na propojování DNA různých zvířecích druhů a vytvářejí tak fantastické nové hybridy. Nyní se chystají k experimentu, jehož výsledek by mohl způsobit revoluci ve vědě a medicíně, hodlají totiž propojit zvířecí a lidskou DNA. Farmaceutická společnost, která jejich výzkum financuje, jim však experiment zakáže. To ale zvídavé genetické inženýry nemůže zastavit, Clive a Elsa se přesunou do podzemí a kvůli své ctižádostivosti riskují kariéru. Výsledkem experimentu je Dren, úžasné a podivně krásné stvoření, které je neobvykle inteligentní a nečekaně fyzicky vyvinuté. Dren předčí jejich nejdivočejší sny. Ovšem jak roste a v abnormálně zrychleném tempu se učí, hrozí, že se její existence stane nejhorší noční můrou...

INFO:
kód:
Format                          : AVI
Format/Info                      : Audio Video Interleave
File size                        : 915 MiB
Duration                        : 1h 43mn
Overall bit rate                : 1 241 Kbps
Writing application              : Lavf53.2.0

Video
ID                              : 0
Format                          : AVC
Format/Info                      : Advanced Video Codec
Format profile                  : High@L3.1
Format settings, CABAC          : Yes
Format settings, ReFrames        : 2 frames
Codec ID                        : H264
Duration                        : 1h 43mn
Bit rate                        : 1 100 Kbps
Width                            : 1 280 pixels
Height                          : 720 pixels
Display aspect ratio            : 16:9
Frame rate                      : 25.000 fps
Color space                      : YUV
Chroma subsampling              : 4:2:0
Bit depth                        : 8 bits
Scan type                        : Progressive
Bits/(Pixel*Frame)              : 0.048
Stream size                      : 811 MiB (89%)
Writing library                  : x264 core 116 r2044 392e762
Encoding settings                : cabac=1 / ref=2 / deblock=1:0:0 / analyse=0x3:0x113 / me=hex / subme=6 / psy=1 / psy_rd=1.00:0.00 / mixed_ref=1 / me_range=16 / chroma_me=1 / trellis=1 / 8x8dct=1 / cqm=0 / deadzone=21,11 / fast_pskip=1 / chroma_qp_offset=-2 / threads=6 / sliced_threads=0 / nr=0 / decimate=1 / interlaced=0 / bluray_compat=0 / constrained_intra=0 / bframes=1 / b_pyramid=0 / b_adapt=1 / b_bias=0 / direct=1 / weightb=1 / open_gop=0 / weightp=2 / keyint=250 / keyint_min=25 / scenecut=40 / intra_refresh=0 / rc_lookahead=30 / rc=2pass / mbtree=1 / bitrate=1100 / ratetol=1.0 / qcomp=0.60 / qpmin=0 / qpmax=69 / qpstep=4 / cplxblur=20.0 / qblur=0.5 / ip_ratio=1.40 / aq=1:1.00

Audio
ID                              : 1
Format                          : MPEG Audio
Format version                  : Version 1
Format profile                  : Layer 3
Mode                            : Joint stereo
Mode extension                  : MS Stereo
Codec ID                        : 55
Codec ID/Hint                    : MP3
Duration                        : 1h 43mn
Bit rate mode                    : Constant
Bit rate                        : 128 Kbps
Channel(s)                      : 2 channels
Sampling rate                    : 48.0 KHz
Compression mode                : Lossy
Stream size                      : 94.4 MiB (10%)
Alignment                        : Aligned on interleaves
Interleave, duration            : 24 ms (0.60 video frame)
Writing library                  : LAME3.98.4

DOWNLOAD:

hellshare

kód:
http://download.hellshare.sk/splice-2009-cz-avi/3625912

PASS:no
Návrat hore Goto down
Zobrazit informácie o autorovi http://warnerfilm.forumn.org
 
Splice (2009)
Zobraziť predchádzajúcu tému Zobraziť nasledujúcu tému Návrat hore 
Strana 1 z 1

Povolenie tohoto fóra:Nemôžete odpovedať na témy v tomto fóre.
Vsetko zadarmo :: .::Download filmy::. :: .::Filmy s ceskym a slovenskym dabingom::.-
Prejdi na: