Vsetko zadarmo

Vsetko zadarmo
 
DomovFAQHľadaťRegistráciaZoznam užívateľovUžívateľské skupinyPrihlásenie

Share | 
 

 Nebezpečná kořist / Proie, La (2011)

Zobraziť predchádzajúcu tému Zobraziť nasledujúcu tému Goto down 
AutorSpráva
aismen
Mega Uploader
Mega Uploader


Počet príspevkov : 703
Registration date : 16.04.2008

OdoslaťPredmet: Nebezpečná kořist / Proie, La (2011)   Ut september 20, 2011 5:56 pm

Proie, La
Nebezpečná kořist


Akční
Francie, 2011, 100 min

Režie:Eric Valette
Hrají:Albert Dupontel, Alice Taglioni, Natacha Régnier, Sergi López, Caterina Murino, Serge Hazanavicius, Zinedine Soualem, Jean-Marie Winling, Veronika Poláčková

http://www.csfd.cz/film/290193-nebezpecna-korist/

Bankovní lupič uteče z vězení, aby se pokusil vypátrat bývalého spoluvězně, který se na něho snaží svalit vinu z několika sériových vražd.Policie zahájí pátrání po uprchlíkovi, který se brzy stane veřejným nepřítelem č. 1. Pokud tři hlavní protagonisté zajdou jak nejdál dokážou, kdo z nich nakonec bude lovec a kdo kořist?


INFO:
kód:
Format                          : AVI
Format/Info                      : Audio Video Interleave
File size                        : 945 MiB
Duration                        : 1h 40mn
Overall bit rate                : 1 317 Kbps
Writing application              : VirtualDubMod 1.5.10.2 (build 2540/release)
Writing library                  : VirtualDubMod build 2540/release

Video
ID                              : 0
Format                          : MPEG-4 Visual
Format profile                  : Advanced Simple@L5
Format settings, BVOP            : 1
Format settings, QPel            : No
Format settings, GMC            : No warppoints
Format settings, Matrix          : Custom
Codec ID                        : XVID
Codec ID/Hint                    : XviD
Duration                        : 1h 40mn
Bit rate                        : 1 180 Kbps
Width                            : 640 pixels
Height                          : 272 pixels
Display aspect ratio            : 2.35:1
Frame rate                      : 25.000 fps
Color space                      : YUV
Chroma subsampling              : 4:2:0
Bit depth                        : 8 bits
Scan type                        : Progressive
Compression mode                : Lossy
Bits/(Pixel*Frame)              : 0.271
Stream size                      : 846 MiB (90%)
Writing library                  : XviD 63

Audio
ID                              : 1
Format                          : MPEG Audio
Format version                  : Version 1
Format profile                  : Layer 3
Mode                            : Joint stereo
Codec ID                        : 55
Codec ID/Hint                    : MP3
Duration                        : 1h 40mn
Bit rate mode                    : Constant
Bit rate                        : 128 Kbps
Channel(s)                      : 2 channels
Sampling rate                    : 48.0 KHz
Compression mode                : Lossy
Delay relative to video          : 24ms
Stream size                      : 91.8 MiB (10%)
Alignment                        : Aligned on interleaves
Interleave, duration            : 40 ms (1.00 video frame)
Interleave, preload duration    : 504 ms

DOWNLOAD:

hellshare

kód:
http://download.hellshare.sk/nebezpecna-korist-2011-cz-avi/3625925


PASS:no
Návrat hore Goto down
Zobrazit informácie o autorovi http://warnerfilm.forumn.org
 
Nebezpečná kořist / Proie, La (2011)
Zobraziť predchádzajúcu tému Zobraziť nasledujúcu tému Návrat hore 
Strana 1 z 1

Povolenie tohoto fóra:Nemôžete odpovedať na témy v tomto fóre.
Vsetko zadarmo :: .::Download filmy::. :: .::Filmy s ceskym a slovenskym dabingom::.-
Prejdi na: