Vsetko zadarmo

Vsetko zadarmo
 
DomovFAQHľadaťRegistráciaZoznam užívateľovUžívateľské skupinyPrihlásenie

Share | 
 

 Hlavní třída / Main Street (2010)

Zobraziť predchádzajúcu tému Zobraziť nasledujúcu tému Goto down 
AutorSpráva
aismen
Mega Uploader
Mega Uploader


Počet príspevkov : 703
Registration date : 16.04.2008

OdoslaťPredmet: Hlavní třída / Main Street (2010)   Ut september 20, 2011 5:42 pm

Main Street
Hlavní třída


Drama
USA, 2010, 90 min

Režie:John Doyle
Hudba:Patrick Doyle
Hrají:Colin Firth, Orlando Bloom, Amber Tamblyn, Patricia Clarkson, Andrew McCarthy, Ellen Burstyn, Margo Martindale, Isiah Whitlock Jr., Tom Wopat

http://www.csfd.cz/film/272030-hlavni-trida/

Uprostřed dnešní náročné doby bude každý z barvitých, navzájem propletených obyvatel malého městečka v Severní Karolině muset znovu nahlédnout do svého nitra, přehodnotit vztahy s ostatními a zamyslet se nad jejich sousedským soužitím.
Malé venkovské městečko pomalu upadá, průmysl na kterém bylo závislé se obrátil v prach a všude zbyla jen prázdná opuštěná skladiště. Mladí lidé odešli, zatoužili po světlech a vzrušujícím ruchu nedalekých velkoměst. Stárnoucí dáma Georgiana Carrová (Ellen Burstynová), kdysi bohatá dědička, nyní ve finanční nouzi podobně jako ostatní, se smutně rozhoduje prodat dům, ve kterém žila celý život. Ale potom se něco stane - do města přijede cizinec Gus Leroy (Colin Firth) a chce si pronajmout jeden z Georgianiných skladů. Příslib nového podnikání vrátí obyvatele zpět do života, vrací se jim do očí zájem a vzrušení. Vítají nového obyvatele a on se postupně stává součástí jejich profesionálních i soukromých životů způsobem, který nikdo neočekával. Zvlášťě když zjistí, že Leroyův byznys je všechny může přivést do nebezpečí…

INFO:
kód:
Format                          : AVI
Format/Info                      : Audio Video Interleave
File size                        : 897 MiB
Duration                        : 1h 33mn
Overall bit rate                : 1 338 Kbps
Writing application              : VirtualDubMod 1.5.10.2 (build 2542/release)
Writing library                  : VirtualDubMod build 2542/release

Video
ID                              : 0
Format                          : MPEG-4 Visual
Format profile                  : Advanced Simple@L5
Format settings, BVOP            : 1
Format settings, QPel            : No
Format settings, GMC            : No warppoints
Format settings, Matrix          : Default (H.263)
Muxing mode                      : Packed bitstream
Codec ID                        : XVID
Codec ID/Hint                    : XviD
Duration                        : 1h 33mn
Bit rate                        : 1 200 Kbps
Width                            : 720 pixels
Height                          : 408 pixels
Display aspect ratio            : 16:9
Frame rate                      : 24.000 fps
Color space                      : YUV
Chroma subsampling              : 4:2:0
Bit depth                        : 8 bits
Scan type                        : Progressive
Compression mode                : Lossy
Bits/(Pixel*Frame)              : 0.170
Stream size                      : 805 MiB (90%)
Writing library                  : XviD 62

Audio
ID                              : 1
Format                          : MPEG Audio
Format version                  : Version 1
Format profile                  : Layer 3
Mode                            : Joint stereo
Mode extension                  : MS Stereo
Codec ID                        : 55
Codec ID/Hint                    : MP3
Duration                        : 1h 33mn
Bit rate mode                    : Constant
Bit rate                        : 128 Kbps
Channel(s)                      : 2 channels
Sampling rate                    : 44.1 KHz
Compression mode                : Lossy
Stream size                      : 85.8 MiB (10%)
Alignment                        : Split accross interleaves
Interleave, duration            : 42 ms (1.00 video frame)
Interleave, preload duration    : 500 ms

DOWNLOAD:

hellshare

kód:
http://download.hellshare.sk/hlavni-trida-2010-cz-avi/3625891

PASS:no
Návrat hore Goto down
Zobrazit informácie o autorovi http://warnerfilm.forumn.org
 
Hlavní třída / Main Street (2010)
Zobraziť predchádzajúcu tému Zobraziť nasledujúcu tému Návrat hore 
Strana 1 z 1

Povolenie tohoto fóra:Nemôžete odpovedať na témy v tomto fóre.
Vsetko zadarmo :: .::Download filmy::. :: .::Filmy s ceskym a slovenskym dabingom::.-
Prejdi na: