Vsetko zadarmo

Vsetko zadarmo
 
DomovFAQHľadaťRegistráciaZoznam užívateľovUžívateľské skupinyPrihlásenie

Share | 
 

 E.T. - Mimozemšťan / E.T. The Extra-Terrestrial (1982)

Zobraziť predchádzajúcu tému Zobraziť nasledujúcu tému Goto down 
AutorSpráva
aismen
Mega Uploader
Mega Uploader


Počet príspevkov : 703
Registration date : 16.04.2008

OdoslaťPredmet: E.T. - Mimozemšťan / E.T. The Extra-Terrestrial (1982)   Ut september 20, 2011 5:23 pm

E.T. - Mimozemšťan
E.T.: The Extra-Terrestrial
E.T. - Mimozemšťan


Rodinný / Sci-Fi / Drama
USA, 1982, 115 min

Režie:Steven Spielberg
Hudba:John Williams
Hrají:Henry Thomas, Dee Wallace, Robert MacNaughton, Drew Barrymore, Peter Coyote, C. Thomas Howell, Erika Eleniak

http://www.csfd.cz/film/8635-et-mimozemstan/

Nedaleko předměstí Los Angeles přistála kosmická loď mimozemšťanů. Podivné postavičky se rozešly sbírat vzorky do okolí a jen jedna z nich se dostala až na kraj lesa. Okouzlena světly velkoměsta zapomněla na své poslání. Proto se nedostala včas na palubu a uvízla na naší planetě. Úkryt nalezl mimozemšťan v kůlně nejbližšího domu a tady ho objevil desetiletý Elliot, který ho představil i svým sourozencům. Stali se z nich kamarádi, ale tomu malému, kterému děti začaly říkat E.T., se strašně stýská po domově a chce stůj co stůj s těmi "svými" navázat spojení. Nezdaří se a E.T. se rozstoná. V té době už je jeho úkryt vypátrán a nemocný mimozemšťánek se ocitne v rukou vědců. Z hodiny na hodinu chřadne až přístroje konstatují jeho smrt. Jen Elliotovi dá najevo, že tomu tak není a že se mu podařilo navázat kontakt s domovem. Dětem se podaří svého kamaráda ze vzdálené planety zachránit.

INFO:
kód:
Format                          : AVI
Format/Info                      : Audio Video Interleave
File size                        : 638 MiB
Duration                        : 1h 55mn
Overall bit rate                : 775 Kbps

Video
ID                              : 0
Format                          : MPEG-4 Visual
Format profile                  : Advanced Simple@L5
Format settings, BVOP            : 2
Format settings, QPel            : No
Format settings, GMC            : No warppoints
Format settings, Matrix          : Default (H.263)
Muxing mode                      : Packed bitstream
Codec ID                        : XVID
Codec ID/Hint                    : XviD
Duration                        : 1h 55mn
Bit rate                        : 574 Kbps
Width                            : 720 pixels
Height                          : 480 pixels
Display aspect ratio            : 3:2
Frame rate                      : 25.000 fps
Standard                        : NTSC
Color space                      : YUV
Chroma subsampling              : 4:2:0
Bit depth                        : 8 bits
Scan type                        : Progressive
Compression mode                : Lossy
Bits/(Pixel*Frame)              : 0.066
Stream size                      : 472 MiB (74%)
Writing library                  : XviD 1.1.0 (UTC 2005-11-22)

Audio
ID                              : 1
Format                          : MPEG Audio
Format version                  : Version 1
Format profile                  : Layer 3
Codec ID                        : 55
Codec ID/Hint                    : MP3
Duration                        : 1h 55mn
Bit rate mode                    : Constant
Bit rate                        : 192 Kbps
Channel(s)                      : 2 channels
Sampling rate                    : 44.1 KHz
Compression mode                : Lossy
Delay relative to video          : 26ms
Stream size                      : 158 MiB (25%)
Alignment                        : Split accross interleaves
Interleave, duration            : 40 ms (1.00 video frame)
Title                            : Audio Stream

DOWNLOAD:

hellshare

kód:
http://download.hellshare.sk/e-t-mimozemstan-cz-avi/3625881


PASS:no
Návrat hore Goto down
Zobrazit informácie o autorovi http://warnerfilm.forumn.org
 
E.T. - Mimozemšťan / E.T. The Extra-Terrestrial (1982)
Zobraziť predchádzajúcu tému Zobraziť nasledujúcu tému Návrat hore 
Strana 1 z 1

Povolenie tohoto fóra:Nemôžete odpovedať na témy v tomto fóre.
Vsetko zadarmo :: .::Download filmy::. :: .::Filmy s ceskym a slovenskym dabingom::.-
Prejdi na: