Vsetko zadarmo

Vsetko zadarmo
 
DomovFAQHľadaťRegistráciaZoznam užívateľovUžívateľské skupinyPrihlásenie

Share | 
 

 Zrození Planety opic/Rise of the Planet of the Apes(2011)

Zobraziť predchádzajúcu tému Zobraziť nasledujúcu tému Goto down 
AutorSpráva
aismen
Mega Uploader
Mega Uploader


Počet príspevkov : 703
Registration date : 16.04.2008

OdoslaťPredmet: Zrození Planety opic/Rise of the Planet of the Apes(2011)   Ne september 18, 2011 7:50 pm

Zrodenie planéty opíc
Rise of the Planet of the Apes
Zrození Planety opic




Akční / Dobrodružný / Sci-Fi / Drama
USA, 2011, 105 min

Režie:Rupert Wyatt
Hudba:Patrick Doyle
Hrají:James Franco, Andy Serkis, Brian Cox, John Lithgow, Freida Pinto, Tom Felton, Tyler Labine, Sonja Bennett, Chelah Horsdal, David Oyelowo, David Hewlett

Pořekadlo, že cesta do pekla bývá dlážděna dobrými úmysly, platí v tomto
příběhu přímo ukázkově. Mladý vědec Will Rodman (James Franco) vyvíjí
lék proti Alzheimerově nemoci, kterou trpí i jeho otec (John Lithgow).
Slibný výzkum se ovšem zadrhává kvůli nežádoucím vedlejším účinkům,
které vykazují pokusní živočichové po aplikaci léčebné látky. Zklamaný
vědec opouští výzkum, odchází pečovat o otce a jako bonus si tajně
odnáší šimpanzí mládě, jehož rodiče zemřeli při Willových pokusech. U
šimpanze Caesara se postupně začne projevovat vysoká inteligence a Will
zjistí, že za to zřejmě může působení jeho léku. Začne mu ho tajně
podávat a tím nechtěně otevře bránu k lidské zkáze. Čím dál
inteligentnější zvíře se po čase ocitne v přírodní rezervaci, kde začne
v čele ostatních opic pomaloučku připravovat vzpouru proti těm, kdo
zabili jeho rodiče a jeho zavřeli do tohoto „fešáckého kriminálu“. Tedy
proti lidem.

INFO:
kód:
Format                          : AVI
Format version                  : Version 1
File size                        : 697 MiB
Duration                        : 1h 37mn
Overall bit rate                : 995 Kbps
Encoded date                    : UTC 2011-08-06 15:51:25

ID                              : 1
Format                          : AVC
Format/Info                      : Advanced Video Codec
Format profile                  : Baseline@L3.0
Format settings, CABAC          : No
Format settings, ReFrames        : 1 frame
Codec ID                        : V_MPEG4/ISO/AVC
Duration                        : 1h 37mn
Bit rate                        : 847 Kbps
Width                            : 720 pixels
Height                          : 304 pixels
Display aspect ratio            : 2.35:1
Frame rate                      : 23.976 fps
Original frame rate              : 23.000 fps
Color space                      : YUV
Chroma subsampling              : 4:2:0
Bit depth                        : 8 bits
Scan type                        : Progressive
Bits/(Pixel*Frame)              : 0.161
Stream size                      : 593 MiB (85%)

ID                              : 2
Format                          : AC-3
Format/Info                      : Audio Coding 3
Mode extension                  : CM (complete main)
Codec ID                        : A_AC3
Duration                        : 1h 37mn
Bit rate mode                    : Constant
Bit rate                        : 128 Kbps
Channel(s)                      : 2 channels
Channel positions                : Front: L R
Sampling rate                    : 48.0 KHz
Bit depth                        : 16 bits
Compression mode                : Lossy
Delay relative to video          : 26ms
Stream size                      : 89.7 MiB (13%)
DOWNLOAD:
kód:
http://download.hellshare.sk/planeta-opic-2011-mkv/3523378

kód:
http://www.upnito.sk/subor/1ebcd493cd6306f7385774d23df1781d.html
PASS:
no
Návrat hore Goto down
Zobrazit informácie o autorovi http://warnerfilm.forumn.org
 
Zrození Planety opic/Rise of the Planet of the Apes(2011)
Zobraziť predchádzajúcu tému Zobraziť nasledujúcu tému Návrat hore 
Strana 1 z 1

Povolenie tohoto fóra:Nemôžete odpovedať na témy v tomto fóre.
Vsetko zadarmo :: .::Download filmy::. :: .::Zahranicna tvorba::.-
Prejdi na: