Vsetko zadarmo

Vsetko zadarmo
 
DomovFAQHľadaťRegistráciaZoznam užívateľovUžívateľské skupinyPrihlásenie

Share | 
 

 SERIALY

Zobraziť predchádzajúcu tému Zobraziť nasledujúcu tému Goto down 
AutorSpráva
aismen
Mega Uploader
Mega Uploader


Počet príspevkov : 703
Registration date : 16.04.2008

OdoslaťPredmet: SERIALY   Ne september 18, 2011 7:42 pm

Joey (TV seriál)
Joey
Joey




Komedie
USA, 2004, 46x30 min

Režie:

Kevin Bright, David Schwimmer, Gail Mancuso, Gil Cat… (více)

Hrají:
Matt LeBlanc, Andrea Anders, Paulo Costanzo, Jennifer Coolidge, Drea de Matteo, Mädchen Amick, Lucy Liu, Miguel A. Núńez Jr., Carlos Gómez, Carmen Electra, Jenna Dewan, Bob Odenkirk, Ellen DeGeneres, Kelly Preston, John Larroquette, Valerie Azlynn, Matt Letscher, Peter Stormare, Christina Ricci, Jayma Mays, Kevin Smith, Adam Goldberg, Jay Leno, Brent Spiner, Robert Costanzo, Lily Tomlin, Louie Anderson, Coolio, Branscombe Richmond, Brianna Brown, Shanna Moakler, Tom Lenk, Simon Helberg, Julia Sweeney, Kimberly Evan, Lisa LoCicero, Joyce Giraud, Neil Flynn, Lisa Arturo, Kevin P. Farley, Andy Milder, Colby Donaldson, Gloria Garayua, Antonio Sabato Jr., Nathan Anderson, Arloa Reston, Marshall Manesh, Brande Roderick, John Michael Higgins, Alyson Stoner, Christopher T. Wood, Jeff Bryan Davis, Dan Cortese, Mindy Sterling, Betty White, Don Perry, Danneel Harris, Brian Gross, Michael Trucco, Josh Randall, Rachel Blanchard, Geoff Stults, Devin Brochu, Beth Littleford

Seriál Joey je voľným pokračovaním úspešného sitcomu Priatelia
(Friends). Jeho hlavnou postavou je Joey (Matt Leblanc), ktorý je
jediným synom v rodine Tribbianovcov. Má sedem sestier a talianskych
predkov, ale po taliansky sa nikdy nenaučil. Joey sa pokúša stať slávnym
hercom. Jeho najväčším úspechom je úloha doktora Draeka Remoreya v
seriály Tak ide čas. Táto práca mu dáva určitú istotu, ale nenapĺňa ho.
Najväčšou jeho oporou je babička, ktorá ho vždy podporuje. Joey je
šarmantný spoločník a netrpí núdzou o ženy, ale napriek tomu nemal so
žiadnou z nich dlhodobý vzťah postavený na láske, okrem Rachel. Po tom,
ako sa jeho priatelia rozpŕchnu, sa Joey presťahuje do Los Angeles, aby
zmenil svoj život a konečne prerazil v hereckej kariére. Priateľov
vymení za svoju staršiu sestru Ginu a jej synovca Michaela. V seriály sa
objavuje aj Joeyho susedka Alex, ktorá je síce vydatá, ale medzi Joeym a
ňou to iskrí...
Joey (Matt Leblanc) sa sťahuje z New Yorku do Los Angeles po tom, ako mu
jeho zástupca oznámi skvelú novinu. Má pre neho nie jednu, ale hneď dve
zaujímavé úlohy v televíznej šou a on si môže vybrať. Nanešťastie
program, ktorý si vyberie nemá úspech, a ten, ktorý zavrhne sa stane
hitom roka. Stretne sa so svojou sestrou Ginou (Drea De Matteová) ,
ktorá mu zoženie byt. Ginin syn Michael (Paulo Constanzo) prehovára
Joeyho, aby s ním mohol bývať. Ale on s tým nesúhlasí, pretože by tým
sestre ublížil. Po dlhom prehováraní Joey prikývne, ale odpoveďou je mu
Ginin hnev... Joey sa zoznámi s mladou susedkou Alex (Andrea Andersová) a
netají sa so svojimi sympatiami k nej. Zistí však, že je už zadaná...
1.seria
DOWNLOAD:
kód:
http://www.upnito.sk/subor/0412f1d3f04a2f647ceb7cd9de5f6ee6.html
http://www.upnito.sk/subor/bbe6198e94a9b02c6c3c1f5a23ac6bc5.html
http://www.upnito.sk/subor/1aa71bb0a28f56243095b08d37a6e1e0.html
http://www.upnito.sk/subor/b8e9303aa97c3be272fbd358094c0bad.html
http://www.upnito.sk/subor/888bc8e10779b0394db55bcc2426de8f.html
http://www.upnito.sk/subor/529ad7e7a49dd08eb9c4dc734469f8dc.html
http://www.upnito.sk/subor/daecbbf1ee699ada516d340480dac643.html

kód:
http://download.hellshare.sk/joey-part1-rar/3625164
http://download.hellshare.sk/joey-part2-rar/3625170
http://download.hellshare.sk/joey-part3-rar/3625175
http://download.hellshare.sk/joey-part4-rar/3625181
http://download.hellshare.sk/joey-part5-rar/3625191
http://download.hellshare.sk/joey-part6-rar/3625207
http://download.hellshare.sk/joey-part7-rar/3625223
pass:
no


Naposledy upravil aismen dňa Ut september 20, 2011 4:46 pm, celkom upravené 1 krát.
Návrat hore Goto down
Zobrazit informácie o autorovi http://warnerfilm.forumn.org
aismen
Mega Uploader
Mega Uploader


Počet príspevkov : 703
Registration date : 16.04.2008

OdoslaťPredmet: Re: SERIALY   Ne september 18, 2011 7:43 pm

Cleveland Show, The (TV seriál)
Cleveland show



Komedie / Animovaný
USA, 2009, 22 min

Režie:
Anthony Lioi

Hrají:
Seth MacFarlane, Nia Long, Sanaa Lathan, Reagan Gomez-Preston, Marina Sirtis, Jason Sudeikis, Will Forte, Rutina Wesley, David Lynch, Lucas Grabeel, Josh Gad, Beth Littleford

Ve spin-offu oblíbeného amerického seriálu Griffinovi se setkáme se
sousedem Petera Griffina, Clevelandem Brownem. Poté, co ho jeho žena
Loretta podvedla s Quagmirem a utekla od něj, dává druhou šanci své
středoškolské lásce Donně, kterou opustil manžel. Brown se za ní
přestěhuje do svého rodného města ve Virginii, i se svým synem
Clevelandem Juniorem. V jejich novém bydlišti je čekají Donniny děti -
šestnáctiletá Roberta a ženami posedlý pětiletý Rallo - a také noví
sousedé - ukřičený buran Lester či manželský pár medvědů Tim a Arianna
(kteří jsou dost citliví na to, když někdo upozorňuje, že jsou medvědi).
[Zdroj: Prima Cool

DOWNLOAD:
1-1
kód:
http://www.upnito.sk/subor/35bcdea7bfa613fb8b848598a44d624e.html
1-2
kód:
http://www.upnito.sk/subor/1ceaa258dd4c24551cd2a14cc9aa7a89.html
1-3
kód:
http://www.upnito.sk/subor/1715d73df4e30f8a3cec22004e97e0ad.html
1-4
kód:
http://www.upnito.sk/subor/7e38467ff629221c20e3b0da4f6e7273.html
pass:
no
Návrat hore Goto down
Zobrazit informácie o autorovi http://warnerfilm.forumn.org
aismen
Mega Uploader
Mega Uploader


Počet príspevkov : 703
Registration date : 16.04.2008

OdoslaťPredmet: Simpsonovi - CZ   Ne september 18, 2011 7:44 pm

The Simpsons / Simpsonovi - CZ

CELA 21.seria


DOWNLOAD:
kód:
http://www.upnito.sk/subor/6445d299bbec72c6f75409502b5e8568.html
http://www.upnito.sk/subor/2e91eb132806538423e01143d82fc6b7.html
http://www.upnito.sk/subor/4c129b68b4288a99410510e085db0dc6.html
http://www.upnito.sk/subor/a926e5e1caf85872df5c952f90fbfe9a.html
http://www.upnito.sk/subor/9e2ea981248e31fe4eade6514aa274fb.html
http://www.upnito.sk/subor/1eaec0341dda41dd1798a1298fe3d4cd.html
http://www.upnito.sk/subor/32f0118c6ee723ce8da07c2ef3548790.html
http://www.upnito.sk/subor/a7525b4f0502047d1839cd4a499647bb.html
http://www.upnito.sk/subor/5166f2d4c17fc203cb3f42e1875a53f9.html

PASS:
no
Návrat hore Goto down
Zobrazit informácie o autorovi http://warnerfilm.forumn.org
aismen
Mega Uploader
Mega Uploader


Počet príspevkov : 703
Registration date : 16.04.2008

OdoslaťPredmet: Re: SERIALY   Ne september 18, 2011 7:46 pm

21x22
Levak od vedle



:DOWNL:
kód:

http://www.upnito.sk/subor/065bd86d1e3376bcd9b844d3eb3f83bf.html
:PASS:
no
Návrat hore Goto down
Zobrazit informácie o autorovi http://warnerfilm.forumn.org
aismen
Mega Uploader
Mega Uploader


Počet príspevkov : 703
Registration date : 16.04.2008

OdoslaťPredmet: That '70s Show/Tie roky 70´   Ut september 20, 2011 6:51 pm

Tie roky sedemdesiate... (TV seriál)
That '70s Show
Zlatá sedmdesátá


Komedie
USA, 1998, 201x24 min

http://www.csfd.cz/film/77730-zlata-sedmdesata/

Režie:Terry Hughes
Hrají:Topher Grace, Danny Masterson, Mila Kunis, Ashton Kutcher, Laura Prepon, Wilmer Valderrama, Debra Jo Rupp, Kurtwood Smith, Tanya Roberts, Tommy Chong, Don Stark, Lisa Robin Kelly, Christina Moore, Joseph Gordon-Levitt, Rachel Bilson, Bret Harrison, Keri Lynn Pratt, Lindsay Lohan, Sarah Lancaster, Ashley Peldon, Courtney Peldon, Jamison Jones, Kavan Reece, Matt Battaglia, Erin Cardillo, Eric Allan Kramer, Marnette Patterson, Jamie Anderson, Neil Flynn, Yvette Nicole Brown, Andrea Bendewald, Shonda Farr, Megalyn Echikunwoke, Nancy Lenehan, Samm Levine, Kevin P. Farley, Jennifer Alden, Estella Warren, Ernie Lively, Melissa Joan Hart, Sarah Christine Smith, Joe Flaherty, Dylan Sprouse, Cole Sprouse, Michele Nordin, Jim Holmes, Cazzy Golomb, Liliana Mumy, Jessica Simpson, Betty White, Jim Beaver, Don Perry, Nectar Rose, Ethan Peck, Chris Elliott, Jim Gaffigan, Nicholas Gonzalez, Marion Ross, Colleen Haskell, Eliza Dushku, David Jeremiah, Megan Paul, Alyson Hannigan, Aria Wallace, Bruce Willis, Barry Williams, Pamela Sue Martin, Wayne Pére, Garrett M. Brown, Bob Clendenin, Jeff Lewis, Mitch Pileggi, Chris McKenna, Don Knotts, Leigh Allyn Baker, Samantha Raddock, Allison Munn, Alicia Ziegler, Scott Holroyd

4s/5d až 4s/27d

DOWNLOAD:

hellshare

kód:
http://download.hellshare.sk/70-s-show-s04e05-zbohom-pivnica-avi/3626340
kód:
http://download.hellshare.sk/70-s-show-s04e06-pad-avi/3626345
kód:
http://download.hellshare.sk/70-s-show-s04e07-ples-avi/3626350
kód:
http://download.hellshare.sk/70-s-show-s04e08-donnin-pribeh-avi/3626354
kód:
http://download.hellshare.sk/70-s-show-s04e09-zabudnuty-syn-avi/3626359
kód:
http://download.hellshare.sk/70-s-show-s04e10-red-a-stacey-avi/3626360
kód:
http://download.hellshare.sk/70-s-show-s04e11-piate-koleso-na-voze-avi/3626368
kód:
http://download.hellshare.sk/70-s-show-s04e12-vianoce-podla-erica-formana-avi/3626372
kód:
http://download.hellshare.sk/70-s-show-s04e13-jackie-predava-syr-avi/3626379
kód:
http://download.hellshare.sk/70-s-show-s04e14-erikova-sexi-sesternica-avi/3626385
kód:
http://download.hellshare.sk/70-s-show-s04e15-slavnost-s-tornadom-avi/3626391
kód:
http://download.hellshare.sk/70-s-show-s04e16-donna-chodi-s-kelsom-avi/3626400
kód:
http://download.hellshare.sk/70-s-show-s04e17-kelsova-kariera-avi/3626403
kód:
http://download.hellshare.sk/70-s-show-s04e18-leo-miluje-kitty-avi/3626406
kód:
http://download.hellshare.sk/70-s-show-s04e19-jackiena-zrada-avi/3626410
kód:
http://download.hellshare.sk/70-s-show-s04e20-fotka-do-rocenky-avi/3626413
kód:
http://download.hellshare.sk/70-s-show-s04e21-den-v-znameni-podrazov-avi/3626416
kód:
http://download.hellshare.sk/70-s-show-s04e22-ericova-riskantna-jazda-avi/3626421
kód:
http://download.hellshare.sk/70-s-show-s04e23-hydove-narodeniny-avi/3626424
kód:
http://download.hellshare.sk/70-s-show-s04e24-to-je-muzikal-avi/3626433
kód:
http://download.hellshare.sk/70-s-show-s04e25-ericov-falosny-poplach-avi/3626441
kód:
http://download.hellshare.sk/70-s-show-s04e26-vsetci-miluju-caseyho-avi/3626446
kód:
http://download.hellshare.sk/70-s-show-s04e27-laska-ala-wisconsin-avi/3626452

PASS:no
Návrat hore Goto down
Zobrazit informácie o autorovi http://warnerfilm.forumn.org
aismen
Mega Uploader
Mega Uploader


Počet príspevkov : 703
Registration date : 16.04.2008

OdoslaťPredmet: Nezvyčajné dinosaury/Extreme Dinosaurs (1997)EN   Pi september 30, 2011 6:09 pm

Extreme Dinosaurs (TV seriál)
Nezvyčajné dinosaury




Animovaný / Akční / Krimi / Sci-Fi
USA, 1997, 52x22 min

CSFD

Hrají:Gary Chalk, Blu Mankuma, Andrew Francis, Jason Gray-Stanford, Sam Vincent

Animovaný seriál o skupinke dinosaurov žijúcich medzi ľuďmi, ktorí sa snažia zabrániť zlým raptorom, aby nastolili na Zemi globálne otepľovanie a tým nastolili ich vládu nad svetom.

Anglický dabing....

INFO:
kód:
Format                          : MPEG-4
Format profile                  : Base Media
Codec ID                        : isom
File size                        : 130 MiB
Duration                        : 21mn 46s
Overall bit rate                : 836 Kbps
Encoded date                    : UTC 2007-01-28 09:25:14
Tagged date                      : UTC 2007-01-28 09:25:14

Video
ID                              : 1
Format                          : AVC
Format/Info                      : Advanced Video Codec
Format profile                  : High@L5.1
Format settings, CABAC          : Yes
Format settings, ReFrames        : 6 frames
Codec ID                        : avc1
Codec ID/Info                    : Advanced Video Coding
Duration                        : 21mn 46s
Bit rate                        : 757 Kbps
Maximum bit rate                : 2 091 Kbps
Width                            : 640 pixels
Height                          : 480 pixels
Display aspect ratio            : 4:3
Frame rate mode                  : Constant
Frame rate                      : 25.000 fps
Color space                      : YUV
Chroma subsampling              : 4:2:0
Bit depth                        : 8 bits
Scan type                        : Progressive
Bits/(Pixel*Frame)              : 0.099
Stream size                      : 118 MiB (91%)
Title                            : Video
Writing library                  : x264 core 54 svn-616
Encoding settings                : cabac=1 / ref=3 / deblock=1:0:0 / analyse=0x3:0x133 / me=hex / subme=6 / brdo=1 / mixed_ref=1 / me_range=16 / chroma_me=1 / trellis=1 / 8x8dct=1 / cqm=0 / deadzone=21,11 / chroma_qp_offset=0 / threads=3 / nr=0 / decimate=1 / mbaff=0 / bframes=3 / b_pyramid=1 / b_adapt=1 / b_bias=0 / direct=1 / wpredb=1 / bime=1 / keyint=250 / keyint_min=25 / scenecut=40(pre) / rc=2pass / bitrate=757 / ratetol=1.0 / rceq='blurCplx^(1-qComp)' / qcomp=0.60 / qpmin=10 / qpmax=51 / qpstep=4 / cplxblur=20.0 / qblur=0.5 / ip_ratio=1.40 / pb_ratio=1.30
Encoded date                    : UTC 2007-01-28 09:25:14
Tagged date                      : UTC 2007-01-28 09:25:17

Audio
ID                              : 2
Format                          : AAC
Format/Info                      : Advanced Audio Codec
Format profile                  : HE-AAC / LC
Codec ID                        : 40
Duration                        : 21mn 45s
Bit rate mode                    : Variable
Bit rate                        : 75.3 Kbps
Maximum bit rate                : 97.2 Kbps
Channel(s)                      : 2 channels
Channel positions                : Front: L R
Sampling rate                    : 48.0 KHz / 24.0 KHz
Compression mode                : Lossy
Stream size                      : 11.7 MiB (9%)
Title                            : German
Language                        : German
Encoded date                    : UTC 2007-01-28 09:25:16
Tagged date                      : UTC 2007-01-28 09:25:17

1.seria EN

DOWNLOAD:


hellshare

kód:
http://download.hellshare.sk/extreme-dinosaurs-s01e01-out-of-time-eng-x264-aac-mp4/3694173
http://download.hellshare.sk/extreme-dinosaurs-s01e02-fossil-fooled-eng-x264-aac-mp4/3694174
http://download.hellshare.sk/extreme-dinosaurs-s01e03-ick-thysaurus-vacation-eng-x264-aac-mp4/3694175
http://download.hellshare.sk/extreme-dinosaurs-s01e04-inevitable-eggstinction-eng-x264-aac-mp4/3694176
http://download.hellshare.sk/extreme-dinosaurs-s01e05-raptoroid-eng-x264-aac-mp4/3694180
http://download.hellshare.sk/extreme-dinosaurs-s01e06-bullseye-surfs-the-web-eng-x264-aac-mp4/3694183
http://download.hellshare.sk/extreme-dinosaurs-s01e07-saurian-sniffles-eng-x264-aac-mp4/3694186
http://download.hellshare.sk/extreme-dinosaurs-s01e08-jurassic-art-eng-x264-aac-mp4/3694188
http://download.hellshare.sk/extreme-dinosaurs-s01e09-mission-implausible-eng-x264-aac-mp4/3694191
http://download.hellshare.sk/extreme-dinosaurs-s01e10-loch-ness-mess-eng-x264-aac-mp4/3694192
http://download.hellshare.sk/extreme-dinosaurs-s01e11-rebels-without-a-clue-eng-x264-aac-mp4/3694195
http://download.hellshare.sk/extreme-dinosaurs-s01e12-dialing-for-dinosaurs-eng-x264-aac-mp4/3694199
http://download.hellshare.sk/extreme-dinosaurs-s01e13-cyber-raptors-eng-x264-aac-mp4/3694200
http://download.hellshare.sk/extreme-dinosaurs-s01e14-lunar-toons-eng-x264-aac-mp4/3694203
http://download.hellshare.sk/extreme-dinosaurs-s01e15-raptorian-crude-eng-x264-aac-mp4/3694205
http://download.hellshare.sk/extreme-dinosaurs-s01e16-incredible-shrinking-dinosaurs-eng-x264-aac-mp4/3694207
http://download.hellshare.sk/extreme-dinosaurs-s01e17-shrink-rap-eng-x264-aac-mp4/3694208
http://download.hellshare.sk/extreme-dinosaurs-s01e18-jurassic-art-eng-x264-aac-mp4/3694211
http://download.hellshare.sk/extreme-dinosaurs-s01e19-there-s-no-place-like-dome-eng-x264-aac-mp4/3694213
http://download.hellshare.sk/extreme-dinosaurs-s01e20-the-rule-book-of-love-eng-x264-aac-mp4/3694215
http://download.hellshare.sk/extreme-dinosaurs-s01e21-have-a-nice-daynosaur-eng-x264-aac-mp4/3694217
http://download.hellshare.sk/extreme-dinosaurs-s01e22-the-dinosaur-prophesy-eng-x264-aac-mp4/3694220
http://download.hellshare.sk/extreme-dinosaurs-s01e23-bones-of-contention-eng-x264-aac-mp4/3694222
http://download.hellshare.sk/extreme-dinosaurs-s01e24-the-bad-seed-eng-x264-aac-mp4/3694223
http://download.hellshare.sk/extreme-dinosaurs-s01e25-the-return-of-argor-eng-x264-aac-mp4/3694226
http://download.hellshare.sk/extreme-dinosaurs-s01e26-holiday-on-ice-eng-x264-aac-mp4/3694229
http://download.hellshare.sk/extreme-dinosaurs-s01e27-earth-vs-the-flying-raptors-eng-x264-aac-mp4/3694230
http://download.hellshare.sk/extreme-dinosaurs-s01e28-the-raptor-who-would-be-king-eng-x264-aac-mp4/3694231
http://download.hellshare.sk/extreme-dinosaurs-s01e29-jelousaurus-on-ice-eng-x264-aac-mp4/3694233
http://download.hellshare.sk/extreme-dinosaurs-s01e30-day-of-the-condorsaurus-eng-x264-aac-mp4/3694235
http://download.hellshare.sk/extreme-dinosaurs-s01e31-night-of-the-living-pumpkins-eng-x264-aac-mp4/3694237
http://download.hellshare.sk/extreme-dinosaurs-s01e32-lights-camera-raptors-eng-x264-aac-mp4/3694239
http://download.hellshare.sk/extreme-dinosaurs-s01e33-a-few-good-dinosaurs-eng-x264-aac-mp4/3694241
http://download.hellshare.sk/extreme-dinosaurs-s01e34-captain-pork-eng-x264-aac-mp4/3694243
http://download.hellshare.sk/extreme-dinosaurs-s01e35-jinxed-eng-x264-aac-mp4/3694246
http://download.hellshare.sk/extreme-dinosaurs-s01e36-enter-the-dinosaur-eng-x264-aac-mp4/3694250
http://download.hellshare.sk/extreme-dinosaurs-s01e37-the-weresaur-eng-x264-aac-mp4/3694251
http://download.hellshare.sk/extreme-dinosaurs-s01e38-colosso-dome-eng-x264-aac-mp4/3694252
http://download.hellshare.sk/extreme-dinosaurs-s01e39-dinosaur-warriors-eng-x264-aac-mp4/3694255
http://download.hellshare.sk/extreme-dinosaurs-s01e40-tiptoe-through-the-tulips-eng-x264-aac-mp4/3694256
http://download.hellshare.sk/extreme-dinosaurs-s01e41-safari-saurus-eng-x264-aac-mp4/3694257
http://download.hellshare.sk/extreme-dinosaurs-s01e42-cliff-notes-eng-x264-aac-mp4/3694258
http://download.hellshare.sk/extreme-dinosaurs-s01e43-the-mysterious-island-of-dr-monstromo-eng-x264-aac-mp4/3694260
http://download.hellshare.sk/extreme-dinosaurs-s01e44-agent-double-o-dinosaur-eng-x264-aac-mp4/3694262
http://download.hellshare.sk/extreme-dinosaurs-s01e45-t-foot-eng-x264-aac-mp4/3694263
http://download.hellshare.sk/extreme-dinosaurs-s01e46-zogwalla-con-eng-x264-aac-mp4/3694265
http://download.hellshare.sk/extreme-dinosaurs-s01e47-surfasaur-s-up-eng-x264-aac-mp4/3694269
http://download.hellshare.sk/extreme-dinosaurs-s01e48-salsafied-eng-x264-aac-mp4/3694270
http://download.hellshare.sk/extreme-dinosaurs-s01e49-sir-gus-and-the-dragon-eng-x264-aac-mp4/3694275
http://download.hellshare.sk/extreme-dinosaurs-s01e50-medusasaur-eng-x264-aac-mp4/3694279
http://download.hellshare.sk/extreme-dinosaurs-s01e51-the-extreme-files-eng-x264-aac-mp4/3694284
http://download.hellshare.sk/extreme-dinosaurs-s01e52-a-bone-to-pick-eng-x264-aac-mp4/3694289




upnito.sk

kód:
http://www.upnito.sk/subor/07525f61a6fc9b55dffc52d97782a762.html
http://www.upnito.sk/subor/d779b1ec7a7caa1d92b177b8740ca1dd.html
http://www.upnito.sk/subor/e527e857c486b86f3c915cf841662038.html
http://www.upnito.sk/subor/555496e2c00eb4423c2a9cc357b70bbe.html
http://www.upnito.sk/subor/f18ae8ed7c307a0aa98f697b7b59d232.html
http://www.upnito.sk/subor/90aa3c128d682f6e859ad22893d1159a.html
http://www.upnito.sk/subor/5a356214253bd87e9c4452a495231486.html
http://www.upnito.sk/subor/bff5e1b9528cb1e3b6a9b5210d566fef.html
http://www.upnito.sk/subor/d101e9c4898953d4af48c3feeab07115.html
http://www.upnito.sk/subor/6eed0a19d76961175d8fbac4a56b73cb.html
http://www.upnito.sk/subor/86c7f040c8ae07b2adcf70d705fbbee6.html
http://www.upnito.sk/subor/9d9aaae19baa0a3fea7cd241df7fa600.html
http://www.upnito.sk/subor/9206fce08754c12850aa40e2b30f087b.html
http://www.upnito.sk/subor/a4bc0b8ef5d3cb7b42bbdcf4615d48a2.html
http://www.upnito.sk/subor/e4c5a907811baa58620b6033fbbef2c9.html
http://www.upnito.sk/subor/200feefdfd7e3756d269252a6a72164a.html
http://www.upnito.sk/subor/810ffb0713556848c28d79d3a44dd9cb.html
http://www.upnito.sk/subor/e1c0d5de4801f1a8729441d895ca35c6.html
http://www.upnito.sk/subor/80c4433beac1e0014466d60cb49af390.html
http://www.upnito.sk/subor/64a982368890db234b824da79babac13.html
http://www.upnito.sk/subor/2f3d50e7eb32f5cb304efef86d45944e.html
http://www.upnito.sk/subor/979a0bc062a8e7a4714dd303d4bc454c.html
http://www.upnito.sk/subor/928b0408dd62edade387eab6cdc9b62a.html
http://www.upnito.sk/subor/2bb975782c5da80e71622e928b778882.html
http://www.upnito.sk/subor/9052c7ce6695f8f31cbba4f62396836f.html
http://www.upnito.sk/subor/9ba812e3f1cdcc71dab378387fe607e6.html
http://www.upnito.sk/subor/7ac3ed1d29d1f58f9df9db385c0cf543.html
http://www.upnito.sk/subor/c79a4b3cf803137e932c198bec0e0ad9.html
http://www.upnito.sk/subor/07cabff2c84615b3f7e07d1b513fee3c.html
http://www.upnito.sk/subor/96ee98ebc7d6b411994cbcc33b58f363.html
http://www.upnito.sk/subor/c304c9466209ed4dc33073be9dc44e4a.html
http://www.upnito.sk/subor/c82c038914355b29069ea71fccce9264.html
http://www.upnito.sk/subor/7bbdb55f3896a73301999be8f7ad6b33.html
http://www.upnito.sk/subor/ce67cb8db35d5299b58063326d658698.html
http://www.upnito.sk/subor/5a620b163469be8aaa4ae55311f10415.html
http://www.upnito.sk/subor/edbff3ba2e161c0611aabd82f4e62b54.html
http://www.upnito.sk/subor/e3de0e9a70f154a761b7fc8df2e33406.html
http://www.upnito.sk/subor/a4dc37ac53c87d69a4be6cb2546f3eac.html
http://www.upnito.sk/subor/40a96b19dd38059dd8fd2579421a701a.html
http://www.upnito.sk/subor/87acad84a879f56a3d73ceb529c14717.html
http://www.upnito.sk/subor/7cad058dc7fab85f4afa09769d74c852.html
http://www.upnito.sk/subor/5bc62d1216beef8f04681861bc5d765e.html
http://www.upnito.sk/subor/b10a13db2d0c66e080d36036fa574f13.html
http://www.upnito.sk/subor/50f2fa78395370155441ae4222ff0525.html
http://www.upnito.sk/subor/afc520cae9d8727d39c8a54201fda5a3.html
http://www.upnito.sk/subor/633bdcae8eceb43fb6331981331aa2e7.html
http://www.upnito.sk/subor/0eaefbfbbe838000607e075e6459baf3.html
http://www.upnito.sk/subor/2e9fa12e9471ff6d82a4dcede041dc79.html
http://www.upnito.sk/subor/26eb81fe921de9b40f733b71874e2c62.html
http://www.upnito.sk/subor/26fb5645555756f130cfe3e07c8a04ab.html
http://www.upnito.sk/subor/e1f04c374821c21726e8708e0e693dfc.html
http://www.upnito.sk/subor/49c7f80f81916509d9ecf20dd17d135a.html

PASS:bez hesla
Návrat hore Goto down
Zobrazit informácie o autorovi http://warnerfilm.forumn.org
aismen
Mega Uploader
Mega Uploader


Počet príspevkov : 703
Registration date : 16.04.2008

OdoslaťPredmet: Re: SERIALY   Ut október 04, 2011 7:56 pm

Dva a pol chlapa (TV seriál)
Two and a Half Men
Dva a půl chlapa

CZ dabing
Komedie
USA, 2003, 178x20 min

CSFD

Režie:Gary Halvorson, James Widdoes, Gail Mancuso, Jerry Z… (více)
Hrají:Charlie Sheen, Jon Cryer, Angus T. Jones, Holland Taylor, Marin Hinkle, Jennifer Taylor, Ryan Stiles, April Bowlby, Jane Lynch, Ashton Kutcher, Emmanuelle Vaugier, Kelly Stables, Graham Patrick Martin, Jenny McCarthy, Robert Wagner, Ming-Na, Megan Fox, Blythe Danner, Lucy Lawless, Krista Allen, Suzanne Whang, Valerie Azlynn, Kay Panabaker, Josie Davis, Brian Wade, Alicia Coppola, Kristin Bauer, Conchata Ferrell, Melanie Lynskey, George Katt, Denise Richards, Jodi Lyn O'Keefe, Jenna Elfman, Gail O'Grady, Tricia O´Kelley, Karen Trella, Eric Allan Kramer, Kate Luyben, Enrique Iglesias, Susse Budde, Yvette Nicole Brown, Andrea Bendewald, Kimberly Oja, Justine Eyre, Teri Hatcher, Jennifer O'Dell, Diane Sellers, Mikki Padilla, Martin Sheen, Janeane Garofalo, Camryn Manheim, Susan Blakely, Allison Janney, Sandra Purpuro, George Eads, Jeri Ryan, Dale Waddington Horowitz, Laura McLauchlin, Michael Clarke Duncan, Deena Dill, Ana Alexander, Orson Bean, Ted Garcia, Christopher T. Wood, Sandra McCoy, Cazzy Golomb, Kevin orbo, Nectar Rose, Nikita Ager, Ken Jeong, Juliette Goglia, Chris O'Donnell, Sean Penn, Harry Dean Stanton, Liz Vassey, Missi Pyle, Judy Greer, Richard Lewis, Susan Sullivan, Heather Locklear, Jake T. Austin, Byrne Offutt, Lee Garlington, Brittney Powell, Ion Overman, Mike Connors, Katherine LaNasa, Irena A. Hoffman, Emilio Estevez, Maria Tornberg, Carrie Reichenbach, Virginia Williams, Aja Evans, Lori Lively, Amanda Gallo, Noel Fisher, Cristine Rose, Arturo Gil, Annie Potts, Sara Rue, Stacey Travis, Carol Kane, Lisa Jay, Joe Dietl, Diane Delano, Natalie Zea, Annie Mumolo, Thomas Gibson

Nezávislému mužovi do života nečakane vstúpi jeho brat a 10-ročný synovec... Charlie (Charlie Sheen) je slobodný muž, ktorý má dom na pobreží, jaguára v garáži a priťahuje pozornosť krásnych žien, ktoré sa nepýtajú na cit. Jeho ľahkovážny a neformálny životný štýl je však narušený, keď sa k nemu nasťahuje jeho brat Alan (Jon Cryer) so svojím synom Jakeom (Angus T.Jones). Spolu títo dva a pol chlapi konfrontujú rôzne životné princípy a stoja pred mnohými životnými výzvami. A to im ustavične dýcha na krk ich večne kontrolujúca matka Evelyn (Holland Taylorová), Alanova odcudzená manželka Judith (Marin Hinkleová) a nemožno zabudnúť ani na Rose (Melanie Lynskeyová), ženu jednej noci a súčasnú susedku Charlieho, ktorá sa chce stať súčasťou jeho života a je ochotná pre to urobiť naozaj čokoľvek...

1.seria x 24 dielov

INFO:
kód:
Format                          : AVI
Format/Info                      : Audio Video Interleave
File size                        : 172 MiB
Duration                        : 22mn 54s
Overall bit rate                : 1 051 Kbps
Writing application              : VirtualDubMod 1.5.10.2 (build 2542/release)
Writing library                  : VirtualDubMod build 2542/release

Video
ID                              : 0
Format                          : MPEG-4 Visual
Format profile                  : Advanced Simple@L5
Format settings, BVOP            : 1
Format settings, QPel            : No
Format settings, GMC            : No warppoints
Format settings, Matrix          : Default (H.263)
Muxing mode                      : Packed bitstream
Codec ID                        : XVID
Codec ID/Hint                    : XviD
Duration                        : 22mn 54s
Bit rate                        : 921 Kbps
Width                            : 640 pixels
Height                          : 352 pixels
Display aspect ratio            : 16:9
Frame rate                      : 23.976 fps
Color space                      : YUV
Chroma subsampling              : 4:2:0
Bit depth                        : 8 bits
Scan type                        : Progressive
Compression mode                : Lossy
Bits/(Pixel*Frame)              : 0.170
Stream size                      : 151 MiB (88%)
Writing library                  : XviD 1.1.2 (UTC 2006-11-01)

Audio
ID                              : 1
Format                          : MPEG Audio
Format version                  : Version 1
Format profile                  : Layer 3
Mode                            : Joint stereo
Mode extension                  : MS Stereo
Codec ID                        : 55
Codec ID/Hint                    : MP3
Duration                        : 22mn 54s
Bit rate mode                    : Variable
Bit rate                        : 118 Kbps
Nominal bit rate                : 128 Kbps
Channel(s)                      : 2 channels
Sampling rate                    : 48.0 KHz
Compression mode                : Lossy
Stream size                      : 19.3 MiB (11%)
Alignment                        : Aligned on interleaves
Interleave, duration            : 24 ms (0.58 video frame)
Interleave, preload duration    : 156 ms
Writing library                  : LAME3.92
Encoding settings                : -m j -V 0 -q 2 -lowpass 15.3 --abr 128

DOWNLOAD:

hellshare

kód:
http://download.hellshare.sk/dva-a-pul-chlapa-1x01-avi/3716484
http://download.hellshare.sk/dva-a-pul-chlapa-1x02-avi/3716505
http://download.hellshare.sk/dva-a-pul-chlapa-1x03-avi/3716534
http://download.hellshare.sk/dva-a-pul-chlapa-1x04-avi/3716558
http://download.hellshare.sk/dva-a-pul-chlapa-1x05-avi/3716584
http://download.hellshare.sk/dva-a-pul-chlapa-1x06-avi/3716596
http://download.hellshare.sk/dva-a-pul-chlapa-1x07-avi/3716617
http://download.hellshare.sk/dva-a-pul-chlapa-1x08-avi/3716644
http://download.hellshare.sk/dva-a-pul-chlapa-1x09-avi/3716660
http://download.hellshare.sk/dva-a-pul-chlapa-1x10-avi/3716671
http://download.hellshare.sk/dva-a-pul-chlapa-1x11-avi/3716682
http://download.hellshare.sk/dva-a-pul-chlapa-1x12-avi/3716707
http://download.hellshare.sk/dva-a-pul-chlapa-1x13-avi/3716963
http://download.hellshare.sk/dva-a-pul-chlapa-1x14-avi/3716752
http://download.hellshare.sk/dva-a-pul-chlapa-1x15-avi/3716772
http://download.hellshare.sk/dva-a-pul-chlapa-1x16-avi/3716785
http://download.hellshare.sk/dva-a-pul-chlapa-1x17-avi/3716992
http://download.hellshare.sk/dva-a-pul-chlapa-1x18-avi/3716837
http://download.hellshare.sk/dva-a-pul-chlapa-1x19-avi/3716865
http://download.hellshare.sk/dva-a-pul-chlapa-1x20-avi/3716891
http://download.hellshare.sk/dva-a-pul-chlapa-1x21-avi/3716907
http://download.hellshare.sk/dva-a-pul-chlapa-1x22-avi/3716921
http://download.hellshare.sk/dva-a-pul-chlapa-1x23-avi/3716935
http://download.hellshare.sk/dva-a-pul-chlapa-1x24-avi/3716948

PASS:bez hesla
Návrat hore Goto down
Zobrazit informácie o autorovi http://warnerfilm.forumn.org
aismen
Mega Uploader
Mega Uploader


Počet príspevkov : 703
Registration date : 16.04.2008

OdoslaťPredmet: Re: SERIALY   St október 12, 2011 5:36 am

Sinpsonovci

1.seria

časti 1-13



DOWNLOAD:
upnito.sk

kód:
http://www.upnito.sk/subor/81957af7ac7534d884e859bea07d65bd.html
http://www.upnito.sk/subor/ee7eff71a9d3d9927f68c4ea4e462181.html
http://www.upnito.sk/subor/a9d4666bbc3d8612201cd1b77f7f3497.html
http://www.upnito.sk/subor/fe860836a2f8c08c68294d8d7b1a5751.html
http://www.upnito.sk/subor/0ccbd292e46377f6094198ee4fcc0821.html
http://www.upnito.sk/subor/14038dc0cd6b15919cccbf647af8075d.html
http://www.upnito.sk/subor/8c5b9f2fca13ae414bbc41f0f0be921a.html
http://www.upnito.sk/subor/a9bb0668ddb7b0c428904c241836a635.html
http://www.upnito.sk/subor/a1b8e00201aa355cf12dbf73052e7dec.html
http://www.upnito.sk/subor/801b3133efdab4909868c70712e0c789.html
http://www.upnito.sk/subor/b6a9305b680f1580683fdb8c4d964058.html
http://www.upnito.sk/subor/926b2a10a01bb1f5027f0c56280425e3.html
http://www.upnito.sk/subor/5770910b0c86a6bef0f56aeca444abcf.html

BEZ HESLA
Návrat hore Goto down
Zobrazit informácie o autorovi http://warnerfilm.forumn.org
aismen
Mega Uploader
Mega Uploader


Počet príspevkov : 703
Registration date : 16.04.2008

OdoslaťPredmet: Re: SERIALY   St október 12, 2011 7:17 pm

Sinpsonovci

TVrip

2.seria

časti 1-22



kód:
http://www.csfd.cz/film/72489-simpsonovi/

kód:
Format                          : AVI
Format/Info                      : Audio Video Interleave
File size                        : 182 MiB
Duration                        : 21mn 57s
Overall bit rate                : 1 160 Kbps
Writing application              : VirtualDubMod 1.5.10.1 (build 2439/release)
Writing library                  : VirtualDubMod build 2439/release

Video
ID                              : 0
Format                          : MPEG-4 Visual
Format settings, BVOP            : Yes
Format settings, QPel            : No
Format settings, GMC            : No warppoints
Format settings, Matrix          : Default (H.263)
Codec ID                        : XVID
Codec ID/Hint                    : XviD
Duration                        : 21mn 57s
Bit rate                        : 1 012 Kbps
Width                            : 512 pixels
Height                          : 384 pixels
Display aspect ratio            : 4:3
Frame rate                      : 25.000 fps
Color space                      : YUV
Chroma subsampling              : 4:2:0
Bit depth                        : 8 bits
Scan type                        : Progressive
Compression mode                : Lossy
Bits/(Pixel*Frame)              : 0.206
Stream size                      : 159 MiB (87%)

Audio
ID                              : 1
Format                          : MPEG Audio
Format version                  : Version 1
Format profile                  : Layer 3
Mode                            : Joint stereo
Mode extension                  : MS Stereo
Codec ID                        : 55
Codec ID/Hint                    : MP3
Duration                        : 21mn 57s
Bit rate mode                    : Variable
Bit rate                        : 135 Kbps
Nominal bit rate                : 128 Kbps
Channel(s)                      : 2 channels
Sampling rate                    : 48.0 KHz
Compression mode                : Lossy
Stream size                      : 21.3 MiB (12%)
Alignment                        : Aligned on interleaves
Interleave, duration            : 24 ms (0.60 video frame)
Interleave, preload duration    : 468 ms
Writing library                  : LAME3.90.
Encoding settings                : -m j -V 4 -q 2 -lowpass 17.6 --abr 128


DOWNLOAD:
hellshare

kód:
http://download.hellshare.sk/02x01-bart-propada-avi/3778630
http://download.hellshare.sk/02x02-homerova-dobra-vila-avi/3778671
http://download.hellshare.sk/02x03-specialni-carodejnicky-dil-i-avi/3778703
http://download.hellshare.sk/02x04-kdo-z-koho-avi/3778733
http://download.hellshare.sk/02x05-homer-maskotem-avi/3778764
http://download.hellshare.sk/02x06-golfova-spolecnost-avi/3778789
http://download.hellshare.sk/02x07-bart-kazisvet-avi/3778808
http://download.hellshare.sk/02x08-dabelsky-bart-avi/3778847
http://download.hellshare.sk/02x09-za-vsechno-muze-televize-avi/3778876
http://download.hellshare.sk/02x10-bartova-srazka-s-autem-avi/3778914
http://download.hellshare.sk/02x11-neni-ryba-jako-ryba-avi/3778955
http://download.hellshare.sk/02x12-takovi-jsme-byli-avi/3778984
http://download.hellshare.sk/02x13-homer-a-desatero-aneb-kazdy-krade-jak-dovede-avi/3779016
http://download.hellshare.sk/02x14-laska-klici-v-reditelne-avi/3779043
http://download.hellshare.sk/02x15-ach-rodny-bratre-kde-te-mam-avi/3779070
http://download.hellshare.sk/02x16-spasitel-trapitel-avi/3779096
http://download.hellshare.sk/02x17-dedovo-dedictvi-avi/3779119
http://download.hellshare.sk/02x18-sila-talentu-avi/3779141
http://download.hellshare.sk/02x19-lizin-let-do-nebe-avi/3779164
http://download.hellshare.sk/02x20-valka-simpsonovych-avi/3779189
http://download.hellshare.sk/02x21-drobne-kiksy-nad-komiksy-avi/3779220
http://download.hellshare.sk/02x22-krevni-msta-avi/3779255

BEZ HESLA
Návrat hore Goto down
Zobrazit informácie o autorovi http://warnerfilm.forumn.org
aismen
Mega Uploader
Mega Uploader


Počet príspevkov : 703
Registration date : 16.04.2008

OdoslaťPredmet: Re: SERIALY   So október 29, 2011 2:29 pm

Simpsonovci

TVrip

3.seria

časti 1-24



kód:
http://www.csfd.cz/film/72489-simpsonovi/

kód:
Format                          : AVI
Format/Info                      : Audio Video Interleave
File size                        : 182 MiB
Duration                        : 21mn 57s
Overall bit rate                : 1 160 Kbps
Writing application              : VirtualDubMod 1.5.10.1 (build 2439/release)
Writing library                  : VirtualDubMod build 2439/release

Video
ID                              : 0
Format                          : MPEG-4 Visual
Format settings, BVOP            : Yes
Format settings, QPel            : No
Format settings, GMC            : No warppoints
Format settings, Matrix          : Default (H.263)
Codec ID                        : XVID
Codec ID/Hint                    : XviD
Duration                        : 21mn 57s
Bit rate                        : 1 012 Kbps
Width                            : 512 pixels
Height                          : 384 pixels
Display aspect ratio            : 4:3
Frame rate                      : 25.000 fps
Color space                      : YUV
Chroma subsampling              : 4:2:0
Bit depth                        : 8 bits
Scan type                        : Progressive
Compression mode                : Lossy
Bits/(Pixel*Frame)              : 0.206
Stream size                      : 159 MiB (87%)

Audio
ID                              : 1
Format                          : MPEG Audio
Format version                  : Version 1
Format profile                  : Layer 3
Mode                            : Joint stereo
Mode extension                  : MS Stereo
Codec ID                        : 55
Codec ID/Hint                    : MP3
Duration                        : 21mn 57s
Bit rate mode                    : Variable
Bit rate                        : 135 Kbps
Nominal bit rate                : 128 Kbps
Channel(s)                      : 2 channels
Sampling rate                    : 48.0 KHz
Compression mode                : Lossy
Stream size                      : 21.3 MiB (12%)
Alignment                        : Aligned on interleaves
Interleave, duration            : 24 ms (0.60 video frame)
Interleave, preload duration    : 468 ms
Writing library                  : LAME3.90.
Encoding settings                : -m j -V 4 -q 2 -lowpass 17.6 --abr 128


DOWNLOAD:
hellshare
kód:
http://download.hellshare.sk/03x01-sileny-homer-avi/3902928
http://download.hellshare.sk/03x02-liza-na-stope-zloradu-avi/3902963
http://download.hellshare.sk/03x03-zkaza-domu-flandersu-avi/3903005
http://download.hellshare.sk/03x04-bart-vrahem-avi/3903040
http://download.hellshare.sk/03x05-homerova-definice-avi/3903079
http://download.hellshare.sk/03x06-jaky-otec-takovy-klaun-avi/3903133
http://download.hellshare.sk/03x07-specialni-carodejnicky-dil-ii-avi/3903173
http://download.hellshare.sk/03x08-cena-lasky-avi/3903233
http://download.hellshare.sk/03x09-hromska-sobota-avi/3903287
http://download.hellshare.sk/03x10-u-ohniveho-vocka-avi/3903337
http://download.hellshare.sk/03x11-jak-burns-prodaval-elektrarnu-avi/3903424
http://download.hellshare.sk/03x12-jak-jsem-si-bral-marge-avi/3903491
http://download.hellshare.sk/03x13-radio-bart-avi/3903555
http://download.hellshare.sk/03x14-liza-sazkarem-avi/3903600
http://download.hellshare.sk/03x15-homer-sam-doma-avi/3903651
http://download.hellshare.sk/03x16-bart-milencem-avi/3903699
http://download.hellshare.sk/03x17-homer-na-palce-avi/3903742
http://download.hellshare.sk/03x18-lizina-vzpoura-avi/3903800
http://download.hellshare.sk/03x19-spasitel-zabijakem-avi/3903855
http://download.hellshare.sk/03x20-cteny-pan-homer-avi/3903891
http://download.hellshare.sk/03x21-cerny-vdovec-avi/3903949
http://download.hellshare.sk/03x22-otto-v-akci-avi/3904005
http://download.hellshare.sk/03x23-milhouseuv-romanek-avi/3904057
http://download.hellshare.sk/03x24-bracho-muzes-postradat-dva-tacy-avi/3904110

euroshare
kód:
http://euroshare.eu/file/2039974/03x01_sileny_homer.avi
http://euroshare.eu/file/2040040/03x02_liza_na_stope_zloradu.avi
http://euroshare.eu/file/2040104/03x03_zkaza_domu_flandersu.avi
http://euroshare.eu/file/2040168/03x04_bart_vrahem.avi
http://euroshare.eu/file/2040226/03x05_homerova_definice.avi
http://euroshare.eu/file/2040291/03x06_jaky_otec__takovy_klaun.avi
http://euroshare.eu/file/2040349/03x07_specialni_carodejnicky_dil_ii.avi
http://euroshare.eu/file/2040413/03x08_cena_lasky.avi
http://euroshare.eu/file/2040496/03x09_hromska_sobota.avi
http://euroshare.eu/file/2040561/03x10_u_ohniveho_vocka.avi
http://euroshare.eu/file/2040625/03x11_jak_burns_prodaval_elektrarnu.avi
http://euroshare.eu/file/2040689/03x12_jak_jsem_si_bral_marge.avi
http://euroshare.eu/file/2040748/03x13_radio_bart.avi
http://euroshare.eu/file/2040820/03x14_liza_sazkarem.avi
http://euroshare.eu/file/2040884/03x15_homer_sam_doma.avi
http://euroshare.eu/file/2040942/03x16_bart_milencem.avi
http://euroshare.eu/file/2041006/03x17_homer_na_palce.avi
http://euroshare.eu/file/2041071/03x18_lizina_vzpoura.avi
http://euroshare.eu/file/2041129/03x19_spasitel_zabijakem.avi
http://euroshare.eu/file/2041189/03x20_cteny_pan_homer.avi
http://euroshare.eu/file/2041254/03x21_cerny_vdovec.avi
http://euroshare.eu/file/2041319/03x22_otto_v_akci.avi
http://euroshare.eu/file/2041376/03x23_milhouseuv_romanek.avi
http://euroshare.eu/file/2041419/03x24_bracho__muzes_postradat_dva_tacy.avi

BEZ HESLA
Návrat hore Goto down
Zobrazit informácie o autorovi http://warnerfilm.forumn.org
aismen
Mega Uploader
Mega Uploader


Počet príspevkov : 703
Registration date : 16.04.2008

OdoslaťPredmet: Re: SERIALY   Po október 31, 2011 7:38 pm

Dva a pol chlapa (TV seriál)
Two and a Half Men
Dva a půl chlapa


Komedie
USA, 2003, 178x20 min

CSFD

Režie:Gary Halvorson, James Widdoes, Gail Mancuso, Jerry Z… (více)
Hrají:Charlie Sheen, Jon Cryer, Angus T. Jones, Holland Taylor, Marin Hinkle, Ryan Stiles, Jennifer Taylor, Ashton Kutcher, Jane Lynch, April Bowlby, Emmanuelle Vaugier, Kelly Stables, Graham Patrick Martin, Jenny McCarthy, Robert Wagner, Ming-Na, Megan Fox, Blythe Danner, Lucy Lawless, Krista Allen, Suzanne Whang, Valerie Azlynn, Kay Panabaker, Josie Davis, Brian Wade, Alicia Coppola, Kristin Bauer, Conchata Ferrell, Melanie Lynskey, George Katt, Denise Richards, Jodi Lyn O'Keefe, Jenna Elfman, Gail O'Grady, Tricia O´Kelley, Karen Trella, Eric Allan Kramer, Kate Luyben, Enrique Iglesias, Susse Budde, Yvette Nicole Brown, Andrea Bendewald, Kimberly Oja, Justine Eyre, Teri Hatcher, Jennifer O'Dell, Diane Sellers, Mikki Padilla, Martin Sheen, Janeane Garofalo, Camryn Manheim, Susan Blakely, Allison Janney, Sandra Purpuro, George Eads, Jeri Ryan, Dale Waddington Horowitz, Laura McLauchlin, Michael Clarke Duncan, Deena Dill, Ana Alexander, Orson Bean, Ted Garcia, Christopher T. Wood, Sandra McCoy, Cazzy Golomb, Kevin orbo, Nectar Rose, Nikita Ager, Ken Jeong, Juliette Goglia, Chris O'Donnell, Sean Penn, Harry Dean Stanton, Liz Vassey, Missi Pyle, Judy Greer, Richard Lewis, Susan Sullivan, Heather Locklear, Jake T. Austin, Byrne Offutt, Lee Garlington, Brittney Powell, Ion Overman, Mike Connors, Katherine LaNasa, Irena A. Hoffman, Emilio Estevez, Maria Tornberg, Carrie Reichenbach, Virginia Williams, Aja Evans, Lori Lively, Amanda Gallo, Noel Fisher, Cristine Rose, Arturo Gil, Annie Potts, Sara Rue, Stacey Travis, Carol Kane, Lisa Jay, Joe Dietl, Diane Delano, Natalie Zea, Annie Mumolo, Thomas Gibson, Lilli Birdsell

Nezávislému mužovi do života nečakane vstúpi jeho brat a 10-ročný synovec... Charlie (Charlie Sheen) je slobodný muž, ktorý má dom na pobreží, jaguára v garáži a priťahuje pozornosť krásnych žien, ktoré sa nepýtajú na cit. Jeho ľahkovážny a neformálny životný štýl je však narušený, keď sa k nemu nasťahuje jeho brat Alan (Jon Cryer) so svojím synom Jakeom (Angus T.Jones). Spolu títo dva a pol chlapi konfrontujú rôzne životné princípy a stoja pred mnohými životnými výzvami. A to im ustavične dýcha na krk ich večne kontrolujúca matka Evelyn (Holland Taylorová), Alanova odcudzená manželka Judith (Marin Hinkleová) a nemožno zabudnúť ani na Rose (Melanie Lynskeyová), ženu jednej noci a súčasnú susedku Charlieho, ktorá sa chce stať súčasťou jeho života a je ochotná pre to urobiť naozaj čokoľvek...

2.seria x 24 dielov

INFO:
kód:
Format                          : AVI
Format/Info                      : Audio Video Interleave
File size                        : 175 MiB
Duration                        : 20mn 23s
Overall bit rate                : 1 201 Kbps
Writing application              : Nandub v1.0rc2
Writing library                  : Nandub build 1853/release

Video
ID                              : 0
Format                          : MPEG-4 Visual
Format profile                  : Advanced Simple@L5
Format settings, BVOP            : 1
Format settings, QPel            : No
Format settings, GMC            : No warppoints
Format settings, Matrix          : Default (H.263)
Codec ID                        : XVID
Codec ID/Hint                    : XviD
Duration                        : 20mn 23s
Bit rate                        : 1 057 Kbps
Width                            : 640 pixels
Height                          : 352 pixels
Display aspect ratio            : 16:9
Frame rate                      : 25.000 fps
Color space                      : YUV
Chroma subsampling              : 4:2:0
Bit depth                        : 8 bits
Scan type                        : Progressive
Compression mode                : Lossy
Bits/(Pixel*Frame)              : 0.188
Stream size                      : 154 MiB (88%)
Writing library                  : XviD 1.1.0 (UTC 2005-11-22)

Audio
ID                              : 1
Format                          : MPEG Audio
Format version                  : Version 1
Format profile                  : Layer 3
Mode                            : Joint stereo
Mode extension                  : MS Stereo
Codec ID                        : 55
Codec ID/Hint                    : MP3
Duration                        : 20mn 22s
Bit rate mode                    : Variable
Bit rate                        : 131 Kbps
Nominal bit rate                : 139 Kbps
Channel(s)                      : 2 channels
Sampling rate                    : 48.0 KHz
Compression mode                : Lossy
Stream size                      : 19.1 MiB (11%)
Alignment                        : Aligned on interleaves
Interleave, duration            : 24 ms (0.60 video frame)
Interleave, preload duration    : 493 ms
Writing library                  : LAME3.97
Encoding settings                : -m j -V 4 -q 3 -lowpass 17 --abr 139

DOWNLOAD:
hellshare
kód:
http://download.hellshare.sk/dva-a-pul-chlapa-2x01-avi/3920902
http://download.hellshare.sk/dva-a-pul-chlapa-2x02-avi/3920997
http://download.hellshare.sk/dva-a-pul-chlapa-2x03-avi/3921088
http://download.hellshare.sk/dva-a-pul-chlapa-2x04-avi/3921226
http://download.hellshare.sk/dva-a-pul-chlapa-2x05-avi/3921321
http://download.hellshare.sk/dva-a-pul-chlapa-2x06-avi/3921380
http://download.hellshare.sk/dva-a-pul-chlapa-2x08-avi/3921454
http://download.hellshare.sk/dva-a-pul-chlapa-2x09-avi/3921561
http://download.hellshare.sk/dva-a-pul-chlapa-2x10-avi/3921666
http://download.hellshare.sk/dva-a-pul-chlapa-2x11-avi/3921857
http://download.hellshare.sk/dva-a-pul-chlapa-2x12-avi/3922050
http://download.hellshare.sk/dva-a-pul-chlapa-2x13-avi/3922225
http://download.hellshare.sk/dva-a-pul-chlapa-2x14-avi/3922365
http://download.hellshare.sk/dva-a-pul-chlapa-2x15-avi/3922478
http://download.hellshare.sk/dva-a-pul-chlapa-2x16-avi/3922531
http://download.hellshare.sk/dva-a-pul-chlapa-2x17-avi/3922606
http://download.hellshare.sk/dva-a-pul-chlapa-2x18-avi/3922660
http://download.hellshare.sk/dva-a-pul-chlapa-2x19-avi/3922736
http://download.hellshare.sk/dva-a-pul-chlapa-2x20-avi/3922832
http://download.hellshare.sk/dva-a-pul-chlapa-2x21-avi/3922944
http://download.hellshare.sk/dva-a-pul-chlapa-2x22-avi/3923092
http://download.hellshare.sk/dva-a-pul-chlapa-2x23-avi/3923164
http://download.hellshare.sk/dva-a-pul-chlapa-2x24-avi/3923236

euroshare
kód:
http://euroshare.eu/file/2054122/dva_a_pul_chlapa_2x01.avi
http://euroshare.eu/file/2054179/dva_a_pul_chlapa_2x02.avi
http://euroshare.eu/file/2054256/dva_a_pul_chlapa_2x03.avi
http://euroshare.eu/file/2054317/dva_a_pul_chlapa_2x04.avi
http://euroshare.eu/file/2054358/dva_a_pul_chlapa_2x05.avi
http://euroshare.eu/file/2054401/dva_a_pul_chlapa_2x06.avi
http://euroshare.eu/file/2054470/dva_a_pul_chlapa_2x07.avi
http://euroshare.eu/file/2054539/dva_a_pul_chlapa_2x08.avi
http://euroshare.eu/file/2054605/dva_a_pul_chlapa_2x09.avi
http://euroshare.eu/file/2054663/dva_a_pul_chlapa_2x10.avi
http://euroshare.eu/file/2054721/dva_a_pul_chlapa_2x11.avi
http://euroshare.eu/file/2054770/dva_a_pul_chlapa_2x12.avi
http://euroshare.eu/file/2054823/dva_a_pul_chlapa_2x13.avi
http://euroshare.eu/file/2054876/dva_a_pul_chlapa_2x14.avi
http://euroshare.eu/file/2054926/dva_a_pul_chlapa_2x15.avi
http://euroshare.eu/file/2054975/dva_a_pul_chlapa_2x16.avi
http://euroshare.eu/file/2055025/dva_a_pul_chlapa_2x17.avi
http://euroshare.eu/file/2055075/dva_a_pul_chlapa_2x18.avi
http://euroshare.eu/file/2055124/dva_a_pul_chlapa_2x19.avi
http://euroshare.eu/file/2055177/dva_a_pul_chlapa_2x20.avi
http://euroshare.eu/file/2055237/dva_a_pul_chlapa_2x21.avi
http://euroshare.eu/file/2055288/dva_a_pul_chlapa_2x22.avi
http://euroshare.eu/file/2055333/dva_a_pul_chlapa_2x23.avi
http://euroshare.eu/file/2055367/dva_a_pul_chlapa_2x24.avi

BEZ HESLA
Návrat hore Goto down
Zobrazit informácie o autorovi http://warnerfilm.forumn.org
Sponsored content




OdoslaťPredmet: Re: SERIALY   Today at 10:12 am

Návrat hore Goto down
 
SERIALY
Zobraziť predchádzajúcu tému Zobraziť nasledujúcu tému Návrat hore 
Strana 1 z 1

Povolenie tohoto fóra:Nemôžete odpovedať na témy v tomto fóre.
Vsetko zadarmo :: .::Download filmy::. :: .::Filmy s ceskym a slovenskym dabingom::.-
Prejdi na: