Vsetko zadarmo

Vsetko zadarmo
 
DomovFAQHľadaťRegistráciaZoznam užívateľovUžívateľské skupinyPrihlásenie

Share | 
 

 Zjizvená tvář / Zjazvená tvár / Scarface (1983)

Zobraziť predchádzajúcu tému Zobraziť nasledujúcu tému Goto down 
AutorSpráva
aismen
Mega Uploader
Mega Uploader


Počet príspevkov : 703
Registration date : 16.04.2008

OdoslaťPredmet: Zjizvená tvář / Zjazvená tvár / Scarface (1983)   Ne september 18, 2011 7:40 pm

Zjazvená tvár
Scarface
Zjizvená tvář


Krimi / Drama / Thriller
USA, 1983, 170 min

http://www.csfd.cz/film/2335-zjizvena-tvar/

Režie:Brian De Palma
Hudba:Giorgio Moroder
Hrají:Al Pacino, Steven Bauer, Michelle Pfeiffer, Mary Elizabeth Mastrantonio, Robert Loggia, F. Murray Abraham, Harris Yulin, Mark Margolis, Richard Belzer, Gregg Henry, Brett Ratner, Katt Shea, Lana Clarkson

"V květnu 1980 otevřel Fidel Castro kubánský přístav Mariel s jasným záměrem nechat některé občany odjet za příbuznými do Spojených států. Do sedmdesáti dvou hodin bylo 3000 amerických lodí na cestě na Kubu. Brzy se ukázalo, že Castro přinutil majitele lodí, aby odvezli nejen příbuzné, ale i nejhorší kubánské vězně. Mezi 125 000 uprchlíky, kteří se vylodili na Floridě, bylo 25 000 trestanců. A jedním z nich byl i kubánský politický vězeň Tony Montana (Al Pacino).

Tony ale hned po příjezdu skončí ve vezění, kde dostane nabídku, která se neodmítá: zabije komunistu a drogová mafie ho dostane ven i s jeho parťákem. Protože Tony by komunistu zabil i zadarmo, s rozhodnutím ani chvíli neváhá. Později začne pracovat pro mafii a svou drzostí a naprostou bezohledností si vydobývá nejvyšší postavení v drogovém oboru. S největší drzostí přebírá i manželku svého šéfa (M. Pfeiffer) a rozjíždí své obchody. Jeho touha po moci a určitá otupělost se postupně mění až v šílenství. Začne se distancovat, nikoho nepotřebuje. Svým jednáním a "nespolehlivostí" si ale znepřátelí spoustu vlivných lidí. A když se dostane na samotný vrchol, není už cesty zpět.

INFO:
kód:
Format                          : AVI
Format/Info                      : Audio Video Interleave
File size                        : 1.52 GiB
Duration                        : 2h 42mn
Overall bit rate                : 1 333 Kbps

Video
ID                              : 0
Format                          : MPEG-4 Visual
Format profile                  : Simple@L3
Format settings, BVOP            : No
Format settings, QPel            : No
Format settings, GMC            : No warppoints
Format settings, Matrix          : Default (H.263)
Codec ID                        : XVID
Codec ID/Hint                    : XviD
Duration                        : 2h 42mn
Bit rate                        : 1 193 Kbps
Width                            : 640 pixels
Height                          : 360 pixels
Display aspect ratio            : 16:9
Frame rate                      : 25.000 fps
Color space                      : YUV
Chroma subsampling              : 4:2:0
Bit depth                        : 8 bits
Scan type                        : Progressive
Compression mode                : Lossy
Bits/(Pixel*Frame)              : 0.207
Stream size                      : 1.36 GiB (89%)
Writing library                  : Magic0432

Audio
ID                              : 1
Format                          : MPEG Audio
Format version                  : Version 1
Format profile                  : Layer 3
Mode                            : Joint stereo
Mode extension                  : MS Stereo
Codec ID                        : 55
Codec ID/Hint                    : MP3
Duration                        : 2h 42mn
Bit rate mode                    : Constant
Bit rate                        : 128 Kbps
Channel(s)                      : 2 channels
Sampling rate                    : 44.1 KHz
Compression mode                : Lossy
Stream size                      : 149 MiB (10%)
Alignment                        : Aligned on interleaves
Interleave, duration            : 26 ms (0.65

DOWNLOAD:

hellshare

kód:
http://download.hellshare.sk/zjazvena-tvar-1983-cz-avi/3587412

quickshare.cz
kód:
http://www.quickshare.cz/stahnout-soubor/605294:zjazvena-tvar-1983-cz-avi_1554MB

PASS:no
Návrat hore Goto down
Zobrazit informácie o autorovi http://warnerfilm.forumn.org
 
Zjizvená tvář / Zjazvená tvár / Scarface (1983)
Zobraziť predchádzajúcu tému Zobraziť nasledujúcu tému Návrat hore 
Strana 1 z 1

Povolenie tohoto fóra:Nemôžete odpovedať na témy v tomto fóre.
Vsetko zadarmo :: .::Download filmy::. :: .::Filmy s ceskym a slovenskym dabingom::.-
Prejdi na: