Vsetko zadarmo

Vsetko zadarmo
 
DomovFAQHľadaťRegistráciaZoznam užívateľovUžívateľské skupinyPrihlásenie

Share | 
 

 Thor (2011) avi

Zobraziť predchádzajúcu tému Zobraziť nasledujúcu tému Goto down 
AutorSpráva
aismen
Mega Uploader
Mega Uploader


Počet príspevkov : 703
Registration date : 16.04.2008

OdoslaťPredmet: Thor (2011) avi   Ne september 18, 2011 7:39 pm

Thor
Thor
Thor


Akční / Dobrodružný / Drama / Fantasy
USA, 2011, 114 min

http://www.csfd.cz/film/234300-thor/

Režie:Kenneth Branagh
Hudba:Patrick Doyle
Hrají:Chris Hemsworth, Tom Hiddleston, Anthony Hopkins, Natalie Portman, Colm Feore, Jaimie Alexander, Stellan Skarsgard, Adriana Barraza, Stan Lee, Ray Stevenson, Tadanobu Asano, Idris Elba, Kat Dennings, Rene Russo, Clark Gregg, Cassity Atkins, Samuel L. Jackson, Jeremy Renner, J. Michael Straczynski

Thorovu (Chris Hemsworth) otci, vládci bohů Odinovi (Anthony Hopkins), trvalo spoustu let, než ve své říši nastolil křehký mír. Jeho arogantní a domýšlivý syn ale dělá všechno proto, aby tuhle rovnováhu narušil. Když pohár trpělivosti jeho otce přeteče, Odin Thora exemplárně potrestá. Odebere mu jeho božské schopnosti a svrhne ho mezi obyčejné smrtelníky na planetu Zemi. Svržený a zavržený Thor lidmi zpočátku opovrhuje, postupně se mu ale začnou dostávat pod kůži, zejména sličná vědkyně Jane Foster (Natalie Portman). Thorovi ale není dopřáno užívat si pozemského klidu. Jeho bratr Loki (Tom Hiddleston) chce využít Thorova aktuálního oslabení a pošle na něj armádu všehoschopných pochopů, která v duchu přísloví „Když se kácí les, létají třísky", rozpoutá peklo na Zemi. Boží synek se bude muset rychle rozhodnout, jestli nechá lidi za sebe krvácet, nebo se vzchopí, zvedne kladivo a vyrazí na zteč.

INFO:
kód:
Format                          : AVI
Format/Info                      : Audio Video Interleave
File size                        : 1.89 GiB
Duration                        : 1h 54mn
Overall bit rate                : 2 360 Kbps
Writing application              : VirtualDubMod 1.5.10.2 (build 2540/release)
Writing library                  : VirtualDubMod build 2540/release

Video
ID                              : 0
Format                          : MPEG-4 Visual
Format profile                  : Advanced Simple@L5
Format settings, BVOP            : 3
Format settings, QPel            : No
Format settings, GMC            : No warppoints
Format settings, Matrix          : Default (MPEG)
Codec ID                        : XVID
Codec ID/Hint                    : XviD
Duration                        : 1h 54mn
Bit rate                        : 1 711 Kbps
Width                            : 720 pixels
Height                          : 304 pixels
Display aspect ratio            : 2.35:1
Frame rate                      : 23.976 fps
Color space                      : YUV
Chroma subsampling              : 4:2:0
Bit depth                        : 8 bits
Scan type                        : Progressive
Compression mode                : Lossy
Bits/(Pixel*Frame)              : 0.326
Stream size                      : 1.37 GiB (72%)
Writing library                  : XviD 1.2.1 (UTC 2008-12-04)

Audio
ID                              : 1
Format                          : AC-3
Format/Info                      : Audio Coding 3
Mode extension                  : CM (complete main)
Codec ID                        : 2000
Duration                        : 1h 54mn
Bit rate mode                    : Constant
Bit rate                        : 640 Kbps
Channel(s)                      : 6 channels
Channel positions                : Front: L C R, Side: L R, LFE
Sampling rate                    : 48.0 KHz
Bit depth                        : 16 bits
Compression mode                : Lossy
Stream size                      : 526 MiB (27%)
Alignment                        : Split accross interleaves
Interleave, duration            : 42 ms (1.00 video frame)
Interleave, preload duration    : 500 ms
DOWNLOAD:
1.89 GiB
hellshare

kód:
http://download.hellshare.sk/thor-2011-avi/3558679
700+700+529MB
upnito.sk

kód:
http://www.upnito.sk/subor/55e12b5220e3a594491a5e199ffc31a3.html
http://www.upnito.sk/subor/287cc388c5507e129771ff910d3cf657.html
http://www.upnito.sk/subor/4fd25f50990aea8784c89384983fb08a.html
1.89 GiB
ulozto.sk

kód:
http://www.uloz.to/10216953/thor-2011-avi
1.89 GiB
filefactory.com

kód:
http://www.filefactory.com/file/c31f5ce/n/Thor_2011.avi
1.89 GiB
rapidshare.com

kód:
https://rapidshare.com/files/118740688/Thor_2011.avi
700+700+529MB
x7.to
kód:
http://x7.to/qp4exr
http://x7.to/aeqyjq
http://x7.to/xl67b8

PASS:no
Návrat hore Goto down
Zobrazit informácie o autorovi http://warnerfilm.forumn.org
 
Thor (2011) avi
Zobraziť predchádzajúcu tému Zobraziť nasledujúcu tému Návrat hore 
Strana 1 z 1

Povolenie tohoto fóra:Nemôžete odpovedať na témy v tomto fóre.
Vsetko zadarmo :: .::Download filmy::. :: .::Filmy s ceskym a slovenskym dabingom::.-
Prejdi na: